<?xml version="1.0" standalone="no"?>
<!DOCTYPE svg PUBLIC "-//W3C//DTD SVG 1.1//EN" "http://www.w3.org/Graphics/SVG/1.1/DTD/svg11.dtd" >
<svg xmlns="http://www.w3.org/2000/svg">
<metadata>Generated by IcoMoon</metadata>
<defs>
<font id="presslayouts-font" horiz-adv-x="1024">
<font-face units-per-em="1024" ascent="960" descent="-64" />
<missing-glyph horiz-adv-x="1024" />
<glyph unicode="&#x20;" horiz-adv-x="512" d="" />
<glyph unicode="&#xe900;" glyph-name="user" d="M511.728 896c108.672 0 223.92-91.534 223.92-159.854v-159.92c0-61.552-25.6-179.312-94.256-233.376-14.924-11.823-24.412-29.944-24.412-50.282 0-2.652 0.161-5.267 0.475-7.835l-0.031 0.308c2.624-22.16 16.592-41.312 36.848-50.625l278.496-132.064c2.176-0.992 26.688-5.104 26.688-39.344l0.032-62.464-895.488-0.048v64.944c0 25.44 19.088 33.425 26.72 36.945l281.023 132.624c20.16 9.248 34.065 28.32 36.769 50.32 2.72 22-6.16 43.84-23.456 57.712-66.48 53.376-97.456 170.704-97.456 233.185v159.92c0.015 66.847 116.416 159.854 224.128 159.854zM511.728 960.002c-141.312 0-288.127-117.938-288.127-223.857v-159.92c0-69.872 31.888-211.248 121.392-283.088l-281.040-132.64s-63.952-28.496-63.952-63.968v-96.032c0-35.344 28.64-63.968 63.951-63.968h895.552c35.344 0 63.968 28.624 63.968 63.968v96.032c0 37.6-63.968 63.968-63.968 63.968l-278.496 132.064c88.656 69.776 118.656 206.849 118.656 283.665v159.92c0 105.92-146.64 223.855-287.936 223.855z" />
<glyph unicode="&#xe901;" glyph-name="people" d="M746 124.72l-201.471 111.602c74.88 58.912 95.216 174.688 95.216 239.601v135.12c0 89.472-118.88 189.12-238.288 189.12-119.376 0-241.408-99.664-241.408-189.12v-135.12c0-59.024 24.975-178.433 100.624-239.089l-206.673-112.112s-54-24.064-54-54.064v-81.088c0-29.84 24.223-54.064 54-54.064h692c29.807 0 54.031 24.224 54.031 54.064v81.087c0 31.808-54.032 54.064-54.032 54.064zM736.033-0.495h-672.031v57.215c4.592 3.343 11.008 7.216 16.064 9.536 1.503 0.688 3.007 1.408 4.431 2.224l206.688 112.096c18.848 10.224 31.344 29.184 33.248 50.528s-7.008 42.256-23.712 55.664c-53.664 43.024-76.656 138.32-76.656 189.152v135.12c0 45.968 86.656 125.12 177.408 125.12 92.432 0 174.288-78.065 174.288-125.12v-135.12c0-50.128-15.568-145.84-70.784-189.28-14.944-11.843-24.444-29.992-24.444-50.36 0-1.867 0.080-3.716 0.236-5.542l-0.016 0.238c1.91-21.976 14.649-40.604 32.793-50.682l0.327-0.167 201.472-111.6c1.777-0.975 4.033-2.031 5.905-2.848 4.72-2 10.527-5.343 14.783-8.288v-57.887zM969.97 284.064l-204.465 111.601c74.88 58.912 98.224 174.688 98.224 239.601v135.12c0 89.472-121.872 190.128-241.28 190.128-77.6 0-156.943-42.192-203.12-96.225 26.337-1.631 55.377-1.664 80.465-9.664 33.711 26.256 76.368 41.872 122.656 41.872 92.431 0 177.278-79.055 177.278-126.128v-135.12c0-50.127-18.56-145.84-73.775-189.28-14.944-11.843-24.444-29.992-24.444-50.36 0-1.867 0.080-3.716 0.236-5.542l-0.016 0.238c1.91-21.975 14.65-40.603 32.793-50.681l0.327-0.167 204.465-111.6c1.776-0.976 4.032-2.032 5.904-2.848 4.72-2 10.527-5.344 14.783-8.288v-56.912h-129.184c19.504-14.72 25.408-35.776 32.977-64h106.192c29.807 0 54.030 24.224 54.030 54.064v80.097c-0.015 31.84-54.047 54.096-54.047 54.096z" />
<glyph unicode="&#xe902;" glyph-name="user-female" d="M960.032 157.312l-278.497 132.064c37.152 18.624 182.256 24.528 194.256 57.28 0 0-57.344 88.016-71.344 202.336-5.44 44.368-14.752 102.592-24 184.592-15.007 133.008-126.88 226.416-268.19 226.416h-0.513c-141.312 0-253.184-93.408-268.176-226.4-9.248-82-18.56-140.224-24-184.592-14-114.336-71.344-202.336-71.344-202.336 12-32.752 157.088-38.656 194.256-57.28l-278.512-132.080s-63.968-22.464-63.968-75.472v-84.528c0-35.376 28.624-61.312 63.968-61.312h896.064c35.343 0 63.967 25.936 63.967 61.312v84.528c0 53.008-63.967 75.472-63.967 75.472zM63.999 0v81.84c0 3.408 12.096 11.6 21.936 15.344 2.127 0.752 3.44 1.344 5.44 2.32l278.495 132.064c22.128 10.464 36.32 32.687 36.593 57.151 0.256 24.464-13.44 46.976-35.313 57.936-21.68 10.88-50.336 16.256-95.248 24.032-10.656 1.872-25.216 4.496-39.344 7.312 18.32 41.105 38.56 98.593 46.529 163.633 1.968 16.193 4.496 34.416 7.312 54.592 4.848 34.336 10.848 77.872 16.752 130.224 11.168 98.865 95.28 169.553 204.592 169.553h0.512c109.312 0 193.439-70.688 204.592-169.568 5.904-52.336 11.904-95.887 16.752-130.224 2.816-20.176 5.345-38.4 7.312-54.592 7.968-65.024 28.224-122.513 46.528-163.633-14.128-2.816-28.688-5.44-39.344-7.312-44.912-7.776-73.568-13.152-95.248-24.032-21.872-10.976-35.568-33.472-35.313-57.936 0.289-24.464 14.464-46.687 36.592-57.151l278.496-132.064c2-0.976 3.312-1.568 5.44-2.32 9.84-3.744 20.496-11.936 21.936-15.344l0.032-81.824h-896.030z" />
<glyph unicode="&#xe903;" glyph-name="user-follow" d="M64.064 65.312c0 25.44 19.091 33.405 26.723 36.94l281.040 132.625c20.144 9.248 34.048 28.32 36.752 50.32 2.72 22-6.16 43.84-23.456 57.712-66.48 53.376-97.456 170.688-97.456 233.185v159.904c0 66.864 116.4 159.856 224.128 159.856 108.672 0 223.92-91.536 223.92-159.856v-159.92c0-61.552-25.6-179.312-94.256-233.359-14.924-11.823-24.412-29.944-24.412-50.282 0-2.652 0.161-5.267 0.475-7.835l-0.031 0.308c2.624-22.16 16.592-41.312 36.848-50.623l95.92-45.504 15.808 63.872-85.008 39.776c88.656 69.776 118.656 206.832 118.656 283.648v159.921c0 105.92-146.625 223.854-287.92 223.854-141.312 0-288.13-117.936-288.13-223.854v-159.92c0-69.872 31.888-211.248 121.393-283.088l-281.040-132.625s-63.952-28.496-63.952-63.967v-96.032c0-35.344 28.64-63.968 63.95-63.968h703.92v64l-703.871-0.032v64.944zM991.939 128.125h-96v96c0 17.68-14.336 32-32 32s-32-14.32-32-32v-96h-96c-17.664 0-32-14.32-32-32 0-17.664 14.336-32 32-32h96v-96c0-17.664 14.336-32 32-32s32 14.336 32 32v96h96c17.664 0 32 14.336 32 32 0 17.68-14.32 32-32 32z" />
<glyph unicode="&#xe904;" glyph-name="user-following" d="M63.504 0.24l0.002 64.942c0 25.44 19.103 33.424 26.72 36.944l281.040 132.624c20.143 9.248 34.047 28.32 36.752 50.32 2.72 22-6.16 43.84-23.457 57.712-66.48 53.376-97.456 170.704-97.456 233.185v159.92c0 66.864 116.4 159.856 224.128 159.856 108.672 0 223.936-91.536 223.936-159.856v-159.92c0-61.552-25.6-179.312-94.256-233.376-14.924-11.823-24.411-29.944-24.411-50.282 0-2.652 0.161-5.267 0.475-7.835l-0.031 0.308c2.624-22.16 16.591-41.313 36.847-50.624l162.24-77.248 38.144 54.064-173.664 81.344c88.656 69.776 118.656 206.849 118.656 283.665v159.92c0 105.92-146.624 223.855-287.936 223.855s-288.128-117.936-288.128-223.855v-159.92c0-69.872 31.888-211.248 121.392-283.088l-281.040-132.656s-63.952-28.496-63.952-63.968v-96.032c0-35.344 28.64-63.968 63.951-63.968h639.712l-52 63.984zM1012.21 236.493c-13.904 10.912-34.032 8.432-44.912-5.473l-136.848-208.704-85.056 85.073c-12.496 12.496-32.768 12.496-45.264 0s-12.496-32.752 0-45.248l113.136-113.136c12.496-12.496 32.752-12.496 45.248 0 3.040 3.024 5.312 6.544 6.88 10.288l152.304 232.304c10.88 13.904 8.432 34.016-5.488 44.896z" />
<glyph unicode="&#xe905;" glyph-name="user-unfollow" d="M799.12 576.144l0.001 159.92c0 105.92-146.608 223.855-287.904 223.855-141.312 0-288.128-117.936-288.128-223.855v-159.92c0-69.872 31.888-211.232 121.392-283.072l-281.040-132.64s-63.952-28.496-63.952-63.968v-96.032c0-35.344 28.64-63.968 63.951-63.968h607.936v64l-607.888-0.032v64.944c0 25.44 19.104 33.425 26.72 36.945l281.040 132.624c20.143 9.248 34.048 28.335 36.752 50.335 2.72 22-6.16 43.825-23.456 57.697-66.48 53.376-97.456 170.688-97.456 233.199v159.92c0 66.864 116.4 159.856 224.128 159.856 108.688 0 223.904-91.536 223.904-159.856v-159.92c0-61.552-25.6-179.328-94.224-233.36-14.928-11.785-24.422-29.881-24.422-50.194 0-2.678 0.165-5.317 0.485-7.908l-0.031 0.31c2.592-22.16 16.56-41.313 36.848-50.624l18.112-8.352 28.065 51.792-19.489 14.72c88.657 69.727 118.656 206.768 118.656 283.584zM924.625 81.199l90.496 90.512c12.496 12.464 12.496 32.752 0 45.248-12.48 12.48-32.753 12.48-45.233 0l-90.512-90.528-90.496 90.528c-12.496 12.48-32.769 12.48-45.25 0-12.495-12.496-12.495-32.784 0-45.248l90.497-90.512-90.496-90.496c-12.496-12.48-12.496-32.768 0-45.264 12.48-12.464 32.753-12.464 45.249 0l90.496 90.511 90.512-90.511c12.48-12.464 32.753-12.464 45.233 0 12.496 12.496 12.496 32.784 0 45.264z" />
<glyph unicode="&#xe906;" glyph-name="emotsmile" d="M781.264 352.848c-16.256 7.28-35.089-0.064-42.257-16.192-0.656-1.424-66.128-144.208-229.439-146.128-1.008 0-2-0.033-3.008-0.033-153.664 0-219.937 140.368-222.688 146.4-7.311 16-26.191 23.12-42.319 15.872-16.096-7.28-23.248-26.208-15.968-42.335 3.408-7.569 85.376-183.937 280.848-183.937 1.28 0 2.592 0.032 3.872 0.032 203.872 2.4 283.84 176.656 287.12 184.064 7.248 16.16-0.032 35.072-16.16 42.256zM511.999 959.999c-282.784 0-512-229.216-512-512s229.216-512 512-512 512 229.216 512 512-229.216 512-512 512zM511.999-0.001c-247.024 0-448 200.976-448 448s200.976 448 448 448 448-200.976 448-448-200.976-448-448-448zM351.503 480.175c35.264 0 63.84 28.592 63.84 63.824s-28.576 63.824-63.84 63.824c-35.28 0-63.84-28.591-63.84-63.824s28.56-63.824 63.84-63.824zM671.503 480.175c35.264 0 63.84 28.592 63.84 63.824s-28.576 63.824-63.84 63.824c-35.28 0-63.84-28.591-63.84-63.824s28.56-63.824 63.84-63.824z" />
<glyph unicode="&#xe907;" glyph-name="home" d="M1016.7 446.64l-480.369 503.168c-5.821 6.069-13.996 9.84-23.053 9.84-0.012 0-0.025 0-0.037 0h0.002c-9.067-0.004-17.252-3.774-23.078-9.83l-0.010-0.010-482.848-503.152c-12.24-12.752-11.808-32.992 0.944-45.248 12.752-12.224 32.992-11.872 45.248 0.944l43.007 44.832v-478.832c0-17.68 14.336-32 32-32h223.552c17.632 0 31.936 14.256 32 31.905l1.008 319.664h254.992v-319.568c0-17.68 14.32-32 32-32h223.472c17.68 0 32 14.32 32 32v478.992l42.992-45.040c5.832-6.069 14.018-9.84 23.084-9.84 0.002 0 0.004 0 0.006 0v0c7.967 0 15.967 2.944 22.16 8.944 12.736 12.224 13.152 32.48 0.928 45.232zM863.535 505.184v-504.831h-159.472v319.552c0 17.68-14.32 32-32 32h-318.88c-17.632 0-31.936-14.256-32-31.904l-1.008-319.664h-159.664v504.848c0 2.64-0.416 5.168-1.008 7.632l353.76 368.623 351.424-368.208c-0.688-2.592-1.152-5.264-1.152-8.048z" />
<glyph unicode="&#xe908;" glyph-name="star" horiz-adv-x="1152" d="M453 622.4l122.8 253 122.8-253c9.2-19 27.2-32.2 48.2-35.4l274.8-40.6-199.6-197.6c-14.8-14.6-21.6-35.6-18-56.2l47-279-245 131c-18.8 10-41.4 10-60.4 0l-245.2-131 47 279c3.4 20.6-3.2 41.4-18 56.2l-199.4 197.6 274.8 40.6c21 3 39 16.4 48.2 35.4zM849.8-58.2c16.2-8.6 35.8-7.4 50.6 3.4s22.4 29 19.4 47l-52.6 311 222.4 220.4c13 12.8 17.4 31.8 11.8 49s-20.6 29.8-38.6 32.6l-306.6 45.2-137.2 282.6c-8 16.6-24.8 27-43.2 27s-35.2-10.4-43.2-27l-137.2-282.6-306.4-45.4c-18-2.6-33-15.2-38.6-32.6s-1-36.2 11.8-49l222.2-220.2-52.4-311c-3-18 4.4-36.2 19.4-47s34.6-12 50.6-3.4l274 146.4 274-146.4z" />
<glyph unicode="&#xe909;" glyph-name="heart" d="M287.984 845.84c31.376 0 88.094-15.008 180.094-105.616l45.616-44.912 44.928 45.632c63.872 64.896 131.84 105.2 177.376 105.2 61.408 0 109.809-21.008 157.009-68.096 44.464-44.368 68.992-103.36 68.992-166.112 0.032-62.784-24.448-121.824-69.408-166.672-3.664-3.712-196.992-212.304-358.96-387.104-7.632-7.248-16.352-8.32-20.991-8.32-4.576 0-13.2 1.024-20.8 8.096-39.472 43.905-325.552 362-358.815 395.232-44.528 44.416-69.025 103.456-69.025 166.224 0.015 62.752 24.511 121.728 69.040 166.144 43.295 43.264 93.984 60.304 154.944 60.304zM287.982 909.84c-76.528 0-144-22.895-200.176-79.008-117.072-116.768-117.072-306.128 0-422.96 33.424-33.44 357.855-394.337 357.855-394.337 18.48-18.496 42.753-27.68 66.96-27.68 24.225 0 48.4 9.184 66.912 27.68 0 0 354.88 383.024 358.656 386.85 117.040 116.88 117.040 306.24 0 423.007-58.112 58-123.024 86.784-202.208 86.784-75.648 0-160-60.32-223.008-124.32-64.992 63.985-146.736 123.984-224.992 123.984z" />
<glyph unicode="&#xe90a;" glyph-name="basket" d="M1015.66 676c-5.829 8.205-15.295 13.495-25.997 13.502h-679.137l-51.408 177.28c-20.16 69.808-68.065 77.344-87.713 77.344h-137.072c-17.569 0-31.777-14.224-31.777-31.776s14.224-31.775 31.776-31.775h137.056c4.336 0 17.568 0 26.593-31.184l176.848-649.936c3.84-13.712 16.336-23.183 30.591-23.183h431.968c13.409 0 25.376 8.4 29.905 21.024l152.256 449.68c3.504 9.744 2.048 20.592-3.888 29.024zM815.026 239.806h-385.487l-101.152 386.128h616.096zM752.003 111.87c-44.192 0-80-35.808-80-80s35.808-80 80-80 80 35.808 80 80-35.808 80-80 80zM464.003 111.87c-44.192 0-80-35.808-80-80s35.808-80 80-80 80 35.808 80 80-35.808 80-80 80z" />
<glyph unicode="&#xe90b;" glyph-name="basket-loaded" d="M1015.66 676c-5.829 8.205-15.296 13.495-25.998 13.502h-99.745l-205.137 174.832c-24.976 24.976-65.52 25.008-90.495 0l-201.647-174.832h-82.096l-51.408 177.28c-20.16 69.808-68.065 77.344-87.713 77.344h-137.088c-17.568 0-31.776-14.224-31.776-31.776s14.223-31.775 31.775-31.775h137.056c4.336 0 17.568 0 26.593-31.184l176.848-649.936c3.84-13.712 16.336-23.183 30.592-23.183h431.968c13.408 0 25.376 8.4 29.904 21.024l152.256 449.68c3.504 9.744 2.048 20.592-3.888 29.024zM639.537 819.070l152.032-129.584h-304.112zM815.025 239.807h-385.487l-101.152 386.128h616.096zM752.002 111.871c-44.192 0-80-35.808-80-80s35.808-80 80-80 80 35.808 80 80-35.808 80-80 80zM464.002 111.871c-44.192 0-80-35.808-80-80s35.808-80 80-80 80 35.808 80 80-35.808 80-80 80z" />
<glyph unicode="&#xe90c;" glyph-name="handbag" d="M1022.74 17.36l-83.407 503.777c-7.44 65.312-66.977 118.432-132.721 118.432h-70.656v85.28c0 130.16-92.848 236.033-222.976 236.033-130.096 0-224.943-105.872-224.943-236.032v-85.28h-76.672c-65.744 0-125.28-53.12-132.528-117.057l-77.28-504.16c-2.976-26.56 2.224-47.503 15.408-62.288 12.431-13.904 30.527-20.976 53.743-20.976h873.568c32.912 0 51.776 13.216 61.84 24.32 9.216 10.208 19.648 28.144 16.624 57.951zM352.049 724.865c0 94.848 66.127 172.031 160.943 172.031s158.977-77.184 158.977-172.031v-85.28h-319.92zM947.168-0.446l-872.498-0.45c-5.504 0-11.008 2.945-9.712 10.689l77.248 504.096c3.84 33.44 35.504 61.68 69.152 61.68h76.689v-72.927c-19.072-11.072-32.048-31.488-32.048-55.137 0-35.344 28.656-64 64-64s64 28.656 64 64c0 23.616-12.928 44-31.952 55.088v72.992h319.903v-72.992c-19.008-11.088-31.952-31.488-31.952-55.088 0-35.344 28.656-64 64-64s64 28.656 64 64c0 23.649-12.976 44.065-32.048 55.153v72.927h70.656c33.664 0 65.313-28.256 69.408-63.44l83.344-503.28c0.4-4.095-2.815-9.31-12.191-9.31z" />
<glyph unicode="&#xe90d;" glyph-name="bag" horiz-adv-x="896" d="M320 768v-64h256v64c0 70.6-57.4 128-128 128s-128-57.4-128-128zM256 640h-192v-640h768v640h-192v-192h-64v192h-256v-192h-64v192zM256 704v64c0 106 86 192 192 192s192-86 192-192v-64h256v-768h-896v768h256z" />
<glyph unicode="&#xe90e;" glyph-name="trash" d="M896.8 800.976l-225.277-0.001v87.264c0 40.528-33.008 72.496-73.536 72.496h-171.984c-40.528 0-73.52-31.968-73.52-72.496v-87.264h-225.28c-17.665 0-32-14.336-32-32s14.335-32 32-32h44.015l74.24-739.92c3.104-34.624 32.608-61.776 67.136-61.776h398.8c34.528 0 64 27.152 67.088 61.472l74.303 740.24h44.016c17.68 0 32 14.336 32 32s-14.32 31.985-32 31.985zM416.482 888.238c0 5.232 4.271 9.505 9.52 9.505h171.984c5.248 0 9.536-4.273 9.536-9.505v-87.264h-191.040zM714.77 2.798c-0.16-1.777-2.256-3.536-3.376-3.536h-398.8c-1.12 0-3.232 1.744-3.425 3.84l-73.632 733.856h552.913z" />
<glyph unicode="&#xe90f;" glyph-name="trash-alt" d="M938.947 812.632h-213.053v34.737c0 62.105-50.526 112.632-112.632 112.632h-202.526c-62.105 0-112.632-50.526-112.632-112.632v-34.737h-213.053c-15.789 0-28.421-12.632-28.421-28.421s12.632-28.421 28.421-28.421h51.368v-667.789c0-83.789 68.211-152 152-152h447.158c83.789 0 152 68.211 152 152v667.789h51.368c15.789 0 28.421 12.632 28.421 28.421s-12.632 28.421-28.421 28.421zM354.947 847.368c0 30.737 25.053 55.789 55.789 55.789h202.526c30.737 0 55.789-25.053 55.789-55.789v-34.737h-314.105v34.737zM830.737 88c0-52.421-42.737-95.158-95.158-95.158h-447.158c-52.421 0-95.158 42.737-95.158 95.158v667.789h637.684v-667.789h-0.211zM512 94.737c15.789 0 28.421 12.632 28.421 28.421v502.316c0 15.789-12.632 28.421-28.421 28.421s-28.421-12.632-28.421-28.421v-502.105c0-15.789 12.632-28.632 28.421-28.632zM326.526 126.105c15.789 0 28.421 12.632 28.421 28.421v439.789c0 15.789-12.632 28.421-28.421 28.421s-28.421-12.632-28.421-28.421v-439.789c0-15.789 12.842-28.421 28.421-28.421zM697.474 126.105c15.789 0 28.421 12.632 28.421 28.421v439.789c0 15.789-12.632 28.421-28.421 28.421s-28.421-12.632-28.421-28.421v-439.789c0-15.789 12.632-28.421 28.421-28.421z" />
<glyph unicode="&#xe910;" glyph-name="magnifier" d="M1014.64-9.040l-310.93 312.833c57.952 69.408 92.88 158.704 92.88 256.208 0 220.912-179.088 400-400 400s-400-179.088-400-400 179.088-400 400-400c100.368 0 192.048 37.056 262.288 98.144l310.496-312.448c12.496-12.497 32.769-12.497 45.265 0 12.48 12.496 12.48 32.752 0 45.263zM396.59 223.473c-185.856 0-336.528 150.672-336.528 336.528s150.672 336.528 336.528 336.528c185.856 0 336.528-150.672 336.528-336.528s-150.672-336.528-336.528-336.528z" />
<glyph unicode="&#xe911;" glyph-name="magnifier-add" d="M1014.62-9.040l-283.026 284.767c60.608 72.4 97.089 165.761 97.089 267.713 0 230.064-185.504 416.561-415.553 416.561s-416.543-186.496-416.543-416.544 186.496-416.544 416.543-416.544c105.008 0 200.672 38.96 273.696 103.072l282.528-284.304c12.496-12.496 32.769-12.496 45.249 0 12.512 12.512 12.512 32.768 0.016 45.28zM412.59 191.999c-193.552 0-352 158.448-352 352s158.448 352 352 352 352-158.448 352-352-158.448-352-352-352zM572.59 575.999h-128v128c0 17.664-14.336 32-32 32s-32-14.336-32-32v-128h-128c-17.664 0-32-14.336-32-32s14.336-32 32-32h128v-128c0-17.664 14.336-32 32-32s32 14.336 32 32v128h128c17.664 0 32 14.336 32 32s-14.32 32-32 32z" />
<glyph unicode="&#xe912;" glyph-name="magnifier-remove" d="M1014.62-9.040l-283.026 284.767c60.608 72.4 97.089 165.761 97.089 267.713 0 230.064-185.504 416.561-415.553 416.561s-416.543-186.496-416.543-416.544 186.496-416.544 416.543-416.544c105.008 0 200.672 38.96 273.696 103.072l282.528-284.304c12.496-12.496 32.769-12.496 45.249 0 12.512 12.512 12.512 32.768 0.016 45.28zM412.59 191.999c-193.552 0-352 158.448-352 352s158.448 352 352 352 352-158.448 352-352-158.448-352-352-352zM572.59 575.999h-320c-17.664 0-32-14.336-32-32s14.336-32 32-32h320c17.664 0 32 14.336 32 32s-14.32 32-32 32z" />
<glyph unicode="&#xe913;" glyph-name="like" d="M608.544-63.744c-290.832 0-293.071 12.062-329.087 39.183-19.104 14.368-55.151 24.32-186.815 32.896-9.552 0.624-18.64 4.288-24.735 11.68-2.8 3.408-68.592 99.36-68.592 253.040 0 151.44 47.088 220.465 49.103 223.665 5.741 9.090 15.734 15.040 27.117 15.040 0.001 0 0.002 0 0.004 0v0c108.112 0 257.984 138 358.736 378.896 17.424 41.664 21.024 69.072 85.024 69.072 36.4 0 77.2-26.064 97.344-59.505 41.328-68.32 20.335-215.057 0.927-293.473 66 0.528 185.472 1.425 242.32 1.425 79.072 0 131.407-47.152 132.991-116.080 0.529-22.752-2.464-51.808-9.040-66.848 17.408-17.36 39.857-43.536 40.832-77.248 1.216-43.52-27.28-76.655-45.472-95.663 4.175-12.656 12.527-29.44 11.71-49.505-2-49.344-40.095-81.136-63.823-97.727 1.968-13.504 3.504-38.976-0.832-58.672-17.12-78.609-132.4-110.177-317.712-110.177zM109.617 73.23c114.688-9.489 175.998-22.336 208.334-46.672 25.024-18.848 21.168-26.32 290.592-26.32 82.176 0 242.896 3.424 255.216 59.84 4.896 22.56-18.895 44.735-18.976 44.911-6.496 16.032 0.737 34.849 16.577 41.777 0.255 0.128 64.143 23.007 65.6 58.72 0.96 22.831-14.72 36.543-15.072 37.12-9.328 14.463-5.92 34.303 8.224 44.16 0.16 0.128 41.551 25.215 40.543 59.423-0.784 27.168-36.576 46.289-37.664 46.928-8 4.576-13.824 12.496-15.648 21.552-1.792 9.040 0.224 18.528 5.84 25.872 0 0 16.272 25.856 15.68 50.112-1.168 51.92-57.007 53.552-68.992 53.552-80.72 0-288.030-0.816-288.030-0.816-11.184-0.048-20.864 5.232-26.88 14.176-6 8.945-6.448 20.048-2.928 30.224 31.263 90.032 48.72 231.28 19.727 279.536-8.544 14.224-10.496 28.432-42.496 28.432-4.432 0-14.991-3.504-25.999-29.744-106.928-255.84-266.64-403.824-397.456-417.168-11.28-25.728-32.496-79.040-32.496-175.775 0-98.737 31.28-175.12 46.305-199.84z" />
<glyph unicode="&#xe914;" glyph-name="dislike" d="M415.44 959.76c290.832 0 293.089-12.066 329.104-39.187 19.104-14.368 55.151-24.335 186.831-32.912 9.568-0.624 18.64-4.288 24.736-11.68 2.8-3.408 68.592-99.36 68.592-253.023 0-151.44-47.088-220.48-49.103-223.696-5.748-9.082-15.74-15.024-27.119-15.024 0 0-0.001 0-0.001 0v0c-108.112 0-257.984-138-358.752-378.912-17.424-41.664-21.008-69.055-85.024-69.055-36.4 0-77.2 26.064-97.376 59.504-41.311 68.32-20.336 215.057-0.912 293.474-66-0.529-185.472-1.44-242.319-1.44-79.072 0-131.393 47.151-133.009 116.096-0.512 22.752 2.464 51.824 9.056 66.832-17.392 17.36-39.856 43.553-40.831 77.265-1.233 43.504 27.279 76.64 45.455 95.664-4.16 12.656-12.512 29.44-11.712 49.505 2.015 49.343 40.095 81.151 63.84 97.743-1.953 13.456-3.489 38.944 0.832 58.624 17.12 78.624 132.4 110.224 317.712 110.224zM914.386 822.75c-114.688 9.488-175.996 22.338-208.332 46.69-25.024 18.832-21.152 26.303-290.608 26.303-82.176 0-242.896-3.424-255.216-59.824-4.912-22.56 18.88-44.752 18.976-44.912 6.496-16.048-0.752-34.848-16.592-41.776-0.256-0.127-64.128-23.024-65.6-58.736-0.944-22.832 14.72-36.544 15.088-37.103 9.312-14.464 5.903-34.32-8.225-44.16-0.16-0.128-41.568-25.216-40.543-59.44 0.784-27.152 36.576-46.288 37.664-46.928 8-4.576 13.824-12.496 15.631-21.568 1.808-9.025-0.224-18.528-5.824-25.84 0 0-16.272-25.872-15.696-50.112 1.184-51.936 57.023-53.568 69.008-53.568 80.72 0 288.030 0.848 288.030 0.848 11.184 0.032 20.864-5.248 26.864-14.192s6.464-20.065 2.928-30.225c-31.248-90.032-48.704-231.28-19.712-279.536 8.528-14.224 10.496-28.432 42.496-28.432 4.432 0 14.991 3.504 25.999 29.745 106.992 255.808 266.704 403.808 397.521 417.15 11.28 25.728 32.496 79.040 32.496 175.792-0.032 98.736-31.312 175.104-46.353 199.824z" />
<glyph unicode="&#xe915;" glyph-name="refresh" d="M497.408 61.44c-0.080 0.193-0.272 0.323-0.385 0.483l-91.92 143.664c-6.528 10.72-20.688 14.527-31.728 8.512l-8.193-5.040c-11.007-6-10.767-21.537-4.255-32.256l58.927-91.409c-5.024 1.104-10.096 2-15.056 3.296-103.184 26.993-190.495 96.832-239.535 191.6-46.336 89.52-55.040 191.695-24.512 287.743 30.512 96.048 99.775 174.464 189.295 220.784 15.248 7.888 21.2 26.64 13.312 41.856-7.872 15.264-26.64 21.231-41.855 13.327-104.272-53.952-184.4-145.28-219.969-257.152-35.552-111.856-25.424-230.881 28.544-335.138 57.136-110.336 158.832-191.664 279.024-223.136 1.36-0.352 2.784-0.56 4.16-0.911l-81.311-41.233c-11.008-6.032-14.657-19.631-8.128-30.351l3.152-8.176c6.56-10.72 17.84-14.527 28.815-8.512l148.832 76.209c0.193 0.128 0.385 0.096 0.578 0.224l9.984 5.456c5.52 3.024 9.168 7.969 10.624 13.505 1.52 5.52 0.815 11.663-2.448 16.991zM913.904 639.187c-57.056 110.304-155.586 191.63-275.762 223.118-8.56 2.24-17.311 3.984-26.048 5.712l79.824 40.48c11.008 6.033 17.568 19.632 11.040 30.369l-3.153 8.16c-6.56 10.736-20.752 14.528-31.727 8.528l-148.816-76.208c-0.176-0.112-0.384-0.080-0.577-0.208l-9.967-5.472c-5.537-3.040-9.168-7.967-10.624-13.503-1.52-5.52-0.816-11.648 2.464-16.976l5.92-9.712c0.096-0.192 0.272-0.305 0.384-0.497l91.92-143.648c6.512-10.736 20.688-14.528 31.712-8.513l7.216 5.025c11.008 6 11.727 21.536 5.231 32.24l-59.2 91.856c13.008-2 25.968-4.416 38.624-7.76 103.232-27.040 187.393-96.864 236.4-191.568 46.32-89.519 55.024-191.695 24.48-287.728-30.511-96.047-96.655-174.448-186.174-220.816-15.233-7.887-21.168-26.607-13.28-41.87 5.519-10.64 16.335-16.768 27.599-16.768 4.8 0 9.664 1.12 14.272 3.488 104.272 53.936 181.248 145.279 216.816 257.119 35.536 111.904 25.393 230.929-28.574 335.152z" />
<glyph unicode="&#xe916;" glyph-name="reload" d="M511.28 960c-255.808 0-463.92-208.126-463.92-463.934 0-240.448 185.296-441.536 423.568-462.096l-91.856-46.56c-11.344-6.223-18.096-20.223-11.376-31.279l3.248-8.4c6.752-11.056 21.376-14.976 32.687-8.783l153.312 78.496c0.193 0.128 0.4 0.095 0.593 0.223l10.288 5.632c5.68 3.12 9.44 8.224 10.943 13.903 1.569 5.68 0.85 12-2.527 17.504l-6.096 10c-0.095 0.193-0.288 0.32-0.4 0.496l-94.689 147.968c-6.72 11.056-21.311 14.976-32.687 8.784l-7.44-5.184c-11.344-6.192-12.096-22.192-5.376-33.217l55.872-86.672c-0.304 0.016-0.576 0.128-0.865 0.144-209.28 13.727-373.2 189.039-373.2 399.039 0.001 220.528 179.408 399.936 399.921 399.936 220.544 0 400.96-179.408 400.96-399.937 0-126.976-58.32-243.6-160-319.968-14.127-10.624-16.975-30.689-6.367-44.817 10.624-14.16 30.689-16.976 44.817-6.368 117.936 88.592 185.567 223.872 185.567 371.152-0.017 255.809-209.152 463.938-464.977 463.938z" />
<glyph unicode="&#xe917;" glyph-name="copy" d="M659.005 780.91h-476.035c-44.668 0-80.947-36.279-80.947-80.947v-683.016c0-44.668 36.279-80.947 80.947-80.947h476.035c44.668 0 80.947 36.279 80.947 80.947v683.016c-0.21 44.668-36.489 80.947-80.947 80.947zM683.121 17.157c0-13.421-10.905-24.326-24.326-24.326h-476.035c-13.421 0-24.326 10.905-24.326 24.326v682.806c0 13.421 10.905 24.326 24.326 24.326h476.035c13.421 0 24.326-10.905 24.326-24.326v-682.806zM841.031 960h-476.035c-44.668 0-80.947-36.279-80.947-80.947 0-15.728 12.582-28.31 28.31-28.31s28.31 12.582 28.31 28.31c0 13.421 10.905 24.326 24.326 24.326h476.035c13.421 0 24.326-10.905 24.326-24.326v-683.016c0-13.421-10.905-24.326-24.326-24.326-15.728 0-28.31-12.582-28.31-28.31s12.582-28.31 28.31-28.31c44.668 0 80.947 36.279 80.947 80.947v683.016c0 44.668-36.279 80.947-80.947 80.947z" />
<glyph unicode="&#xe918;" glyph-name="share" d="M864 256c-52.688 0-99.295-25.585-128.431-64.88l-421.36 214.72c3.664 13.455 5.792 27.535 5.792 42.16 0 18.303-3.216 35.807-8.88 52.175l423.76 205.616c29.089-39.807 76.016-65.791 129.12-65.791 88.367 0 160 71.649 160 160 0 88.368-71.633 160-160 160s-160.001-71.633-160.001-160c0-12.431 1.567-24.464 4.24-36.080l-429.84-208.577c-29.281 32.273-71.393 52.656-118.4 52.656-88.369 0.001-160-71.632-160-159.999 0-88.351 71.631-160 160-160 50.895 0 96.127 23.824 125.423 60.865l423.104-215.632c-2.863-11.969-4.527-24.385-4.527-37.233 0-88.368 71.632-160 160-160s160 71.632 160 160-71.632 160-160 160zM864.002 895.999c53.008 0 96-42.992 96-96s-42.992-96-96-96-96 42.992-96 96 42.992 96 96 96zM160.002 351.999c-53.024 0-96 42.992-96 96s42.976 96 96 96c53.008 0 96-42.992 96-96s-42.992-96-96-96zM864.002-0.001c-53.008 0-96 42.992-96 96s42.992 96 96 96 96-42.992 96-96-42.992-96-96-96z" />
<glyph unicode="&#xe919;" glyph-name="share-alt" d="M901.84 10.624h-831.999v640h257.6l64.72 62.336-1.664 1.664h-320.657c-35.344 0-64-28.656-64-64v-640c0-35.344 28.656-64 64-64h832c35.343 0 64 28.656 64 64v500.672l-64-61.088v-439.584zM270.129 266.624l64.48 0.001c44.865 254.496 266.545 448 533.889 448 11.215 0 21.855-0.096 32.623-0.176l-117.248-117.232c-12.464-12.496-12.464-32.752 0-45.248 6.255-6.256 14.463-9.376 22.656-9.376s16.336 3.12 22.592 9.376l189.024 194-189.025 194.032c-12.464 12.496-32.72 12.496-45.248 0-12.464-12.496-12.464-32.752 0-45.248l116.176-116.16c-10.033 0.016-19.968 0.048-30.208 0.048-303.056 0-553.567-221.952-599.711-512.017z" />
<glyph unicode="&#xe91a;" glyph-name="link" d="M295.664 227.552c6.256-6.256 14.432-9.376 22.624-9.376s16.368 3.12 22.624 9.376l387.664 390.688c12.496 12.496 12.496 32.752 0 45.248s-32.752 12.496-45.248 0l-387.664-390.688c-12.512-12.496-12.512-32.752 0-45.248zM475.872 295.695c10.576-46.624-0.834-92.4-36.866-128.432l-129.248-125.248c-27.2-27.184-63.36-42.16-101.824-42.16s-74.624 14.976-101.808 42.16c-56.144 56.16-56.144 147.536-0.336 203.344l126.256 130.256c27.2 27.184 63.36 42.176 101.824 42.176 13.152 0 25.824-2.352 38.176-5.743l49.952 49.952c-27.872 13.024-57.952 19.792-88.128 19.792-53.233 0-106.465-20.32-147.073-60.929l-125.937-129.936c-81.216-81.216-81.216-212.912 0-294.16 40.608-40.624 93.84-60.912 147.073-60.912s106.465 20.288 147.073 60.912l128.944 124.944c62.128 62.128 75.568 148.72 42.656 224.72zM963.134 899.216c-40.624 40.608-93.84 60.929-147.057 60.929-53.248 0-106.496-20.32-147.088-60.929l-128.928-124.944c-64.4-64.4-77.536-160.465-39.792-238.033l49.664 49.648c-14.704 49.104-3.408 104.336 35.056 142.832l129.248 125.248c27.216 27.184 63.344 42.176 101.84 42.176 38.431 0 74.624-14.992 101.808-42.176 56.128-56.16 56.128-147.536 0.32-203.344l-129.248-129.248c-27.183-27.183-63.376-42.159-101.808-42.159-9.808 0-18.431-0.992-27.84 0.928l-50.975-51.008c25.471-10.592 51.632-13.935 78.815-13.935 53.216 0 106.432 20.303 147.056 60.927l128.945 128.944c81.2 81.216 81.2 212.896-0.015 294.144z" />
<glyph unicode="&#xe91b;" glyph-name="paper-clip" d="M172.72-47.632c-43.408 0-85.085 17.965-118.301 51.213-73.648 73.888-73.648 194.063-0.017 267.903l574.272 609.824c89.6 89.744 226.848 81.68 327.008-18.608 44.88-44.96 70.064-109.776 69.12-177.904-0.945-67.409-27.28-131.92-72.289-177.008l-434.016-462.048c-12.080-12.945-32.336-13.536-45.231-1.393-12.864 12.16-13.488 32.448-1.36 45.345l434.672 462.752c34 34.064 53.504 82.385 54.223 133.249 0.72 50.895-17.664 98.88-50.368 131.664-61.44 61.568-161.473 93.808-235.841 19.264l-574.256-609.824c-49.376-49.503-49.36-129.008-0.64-177.855 22.847-22.864 49.967-34 78.847-32.255 28.576 1.744 57.952 16.4 82.72 41.232l456.927 486.336c16.56 16.592 49.84 57.264 15.968 91.216-19.184 19.216-32.656 18.032-37.087 17.664-12.656-1.12-27.44-9.872-42.784-25.264l-343.92-365.776c-12.144-12.912-32.416-13.536-45.233-1.36-12.88 12.128-13.472 32.448-1.36 45.312l344.546 366.464c27.088 27.216 54.784 41.968 82.976 44.496 22 1.953 54.72-2.736 88.096-36.208 49.536-49.631 43.376-122.432-15.28-181.216l-456.928-486.303c-36.48-36.608-80.529-57.872-124.721-60.591-3.248-0.224-6.496-0.32-9.744-0.32z" />
<glyph unicode="&#xe91c;" glyph-name="paper-plane" d="M1004.030 960c-6.096 0-13.52-1.73-22.096-5.361l-954.656-405.089c-34.368-14.577-36.544-42.689-4.832-62.449l269.76-168.032c31.712-19.744 73.648-62.080 93.184-94.047l161.712-264.768c9.28-15.184 20.496-22.72 31.28-22.72 11.92 0 23.28 9.152 31.025 27.232l408.256 953.744c11.055 25.873 4.752 41.49-13.633 41.49zM325.552 376.078l-218.656 136.209 733.616 311.248-472.192-480.192c-14.432 12.8-29.088 24.224-42.768 32.735zM572.72 44.735l-130.432 213.52c-7.696 12.609-17.856 26.050-29.185 39.393l474.384 482.384z" />
<glyph unicode="&#xe91d;" glyph-name="present" d="M1024 639.504c0 35.344-28.654 64-63.998 64h-109.248c28.272 27.888 46.368 64.447 46.368 109.472 0 55.44-31.84 115.664-121.216 115.664-117.6 0-215.84-125.216-262-195.408-46.192 70.176-147.44 195.392-265.024 195.392-89.376 0-121.216-60.224-121.216-115.664 0-45.008 18.592-81.584 47.44-109.472h-111.104c-35.344 0-64-28.656-64-64v-191.568h64.56v-416.56c0-35.344 28.655-64 64-64h767.68c35.343 0 64 28.656 64 64v416.576h63.76v191.568zM775.906 864.624c39.568 0 57.216-16.625 57.216-51.665 0-71.088-79.344-109.439-153.968-109.439h-108.336c45.471 67.536 125.504 161.104 205.088 161.104zM248.881 864.623c79.6 0 162.655-93.568 208.127-161.088h-108.368c-74.624 0-156.976 39.344-156.976 110.432 0 35.024 17.648 50.656 57.217 50.656zM960.001 511.936h-416v127.568h416v-127.568zM64.001 639.504h416v-127.568h-416zM128.561 447.936h351.44v-416.56h-351.44zM896.257 31.376h-352.256v416.56h352.256v-416.56z" />
<glyph unicode="&#xe91e;" glyph-name="database" d="M512 960c-239.232 0-426.666-84.352-426.666-192s187.434-192 426.666-192 426.666 84.352 426.666 192-187.434 192-426.666 192zM512 618.666c-226.304 0-384 78.72-384 149.334s157.696 149.334 384 149.334 384-78.72 384-149.334-157.696-149.334-384-149.334zM917.334 576c-11.776 0-21.334-9.558-21.334-21.334 0-70.614-157.696-149.334-384-149.334s-384 78.72-384 149.334c0 11.776-9.558 21.334-21.334 21.334s-21.334-9.558-21.334-21.334c0-107.648 187.434-192 426.666-192s426.666 84.352 426.666 192c0.002 11.776-9.554 21.334-21.33 21.334zM917.334 362.666c-11.776 0-21.334-9.558-21.334-21.334 0-70.612-157.696-149.332-384-149.332s-384 78.72-384 149.334c0 11.776-9.558 21.334-21.334 21.334s-21.334-9.558-21.334-21.334c0-107.648 187.434-192 426.666-192s426.666 84.352 426.666 192c0.002 11.776-9.554 21.332-21.33 21.332zM917.334 789.334c-11.776 0-21.334-9.558-21.334-21.334v-640c0-70.614-157.696-149.334-384-149.334s-384 78.72-384 149.334v640c0 11.776-9.558 21.334-21.334 21.334s-21.332-9.558-21.332-21.334v-640c0-107.648 187.434-192 426.666-192s426.666 84.352 426.666 192v640c0 11.776-9.556 21.334-21.332 21.334z" />
<glyph unicode="&#xe91f;" glyph-name="lock" d="M800 576h-32v122.128c0 146.848-106.256 261.872-257.184 261.872-151.536 0-254.816-117.472-254.816-261.872v-122.128h-32c-70.592 0-128-57.408-128-128v-384c0-70.592 57.408-128 128-128h576c70.592 0 128 57.408 128 128v384c0 70.592-57.408 128-128 128zM320 698.128c0 109.088 74.56 197.872 190.816 197.872 115.056 0 193.184-86.912 193.184-197.872v-122.128h-384v122.128zM864.001 64c0-35.28-28.72-64-64-64h-576c-35.28 0-64 28.72-64 64v384c0 35.28 28.72 64 64 64h576c35.28 0 64-28.72 64-64v-384zM512.001 384c-35.344 0-64-28.656-64-64 0-23.632 12.96-44.032 32-55.12v-104.88c0-17.664 14.336-32 32-32s32 14.336 32 32v104.88c19.040 11.088 32 31.504 32 55.12 0 35.344-28.656 64-64 64z" />
<glyph unicode="&#xe920;" glyph-name="lock-open" d="M800 574.896l-456.96-0.001-16.56 74.273c-28.24 105.376 20.816 210.432 133.088 240.512 111.136 29.776 209.088-33.936 237.824-141.12l13.6-53.967c4.576-17.073 22.112-27.2 39.2-22.624 17.072 4.576 27.2 22.112 22.624 39.184l-13.616 53.968c-37.984 141.84-170.385 225.44-316.192 186.384-146.368-39.215-215.712-179.424-178.336-318.912l12.864-57.696h-53.536c-70.592 0-128-57.408-128-128v-384c0-70.592 57.408-128 128-128h576c70.592 0 128 57.408 128 128v384c0 70.592-57.408 128-128 128zM864 62.896c0-35.28-28.72-64-64-64h-576c-35.28 0-64 28.72-64 64v384c0 35.28 28.72 64 64 64h576c35.28 0 64-28.72 64-64v-384zM512 382.896c-35.344 0-64-28.656-64-64 0-23.632 12.96-44.032 32-55.12v-104.88c0-17.664 14.336-32 32-32s32 14.336 32 32v104.88c19.040 11.088 32 31.504 32 55.12 0 35.344-28.656 64-64 64z" />
<glyph unicode="&#xe921;" glyph-name="password" d="M151.272 352.428c-17.57 0-31.829 14.259-31.829 31.829v275.852c0 17.57 14.259 31.829 31.829 31.829s31.829-14.259 31.829-31.829v-275.852c0-17.57-14.259-31.829-31.829-31.829zM511.997 352.428c-17.57 0-31.829 14.259-31.829 31.829v275.852c0 17.57 14.259 31.829 31.829 31.829s31.829-14.259 31.829-31.829v-275.852c0-17.57-14.259-31.829-31.829-31.829zM392.623 421.393c-11.034 0-21.727 5.727-27.586 15.914-8.789 15.192-3.567 34.665 11.625 43.454l238.887 137.922c15.238 8.828 34.712 3.528 43.454-11.625 8.789-15.192 3.567-34.673-11.625-43.462l-238.887-137.922c-5.051-2.93-10.522-4.282-15.868-4.282zM631.378 421.393c-5.385 0-10.863 1.352-15.868 4.282l-238.887 137.922c-15.192 8.789-20.414 28.27-11.633 43.462 8.789 15.153 28.184 20.453 43.5 11.625l238.887-137.922c15.192-8.789 20.414-28.262 11.625-43.454-5.898-10.187-16.59-15.914-27.625-15.914zM31.891 421.393c-11.034 0-21.727 5.727-27.578 15.914-8.789 15.192-3.567 34.665 11.625 43.454l238.887 137.922c15.277 8.828 34.673 3.528 43.454-11.625 8.789-15.192 3.567-34.673-11.625-43.462l-238.887-137.922c-5.051-2.93-10.522-4.282-15.876-4.282zM270.654 421.393c-5.393 0-10.863 1.352-15.876 4.282l-238.887 137.922c-15.192 8.789-20.406 28.27-11.625 43.462 8.742 15.153 28.223 20.453 43.454 11.625l238.887-137.922c15.238-8.789 20.46-28.262 11.672-43.454-5.898-10.187-16.59-15.914-27.625-15.914zM872.729 352.428c-17.57 0-31.829 14.259-31.829 31.829v275.852c0 17.57 14.259 31.829 31.829 31.829s31.829-14.259 31.829-31.829v-275.852c0-17.57-14.259-31.829-31.829-31.829zM753.347 421.393c-11.034 0-21.727 5.727-27.586 15.914-8.781 15.192-3.567 34.665 11.633 43.454l238.879 137.922c15.238 8.828 34.72 3.528 43.462-11.625 8.781-15.192 3.567-34.673-11.633-43.462l-238.879-137.922c-5.051-2.93-10.529-4.282-15.876-4.282zM992.11 421.393c-5.393 0-10.871 1.352-15.876 4.282l-238.887 137.922c-15.192 8.789-20.414 28.27-11.625 43.462 8.742 15.153 28.177 20.453 43.454 11.625l238.887-137.922c15.192-8.789 20.414-28.262 11.625-43.454-5.851-10.187-16.552-15.914-27.578-15.914zM267.981 203.891h-233.417c-17.57 0-31.829 14.259-31.829 31.829s14.259 31.829 31.829 31.829h233.417c17.57 0 31.829-14.259 31.829-31.829s-14.259-31.829-31.829-31.829zM628.705 203.891h-233.409c-17.57 0-31.829 14.259-31.829 31.829s14.259 31.829 31.829 31.829h233.409c17.57 0 31.829-14.259 31.829-31.829s-14.259-31.829-31.829-31.829zM989.429 203.891h-233.409c-17.57 0-31.829 14.259-31.829 31.829s14.259 31.829 31.829 31.829h233.409c17.57 0 31.829-14.259 31.829-31.829s-14.259-31.829-31.829-31.829z" />
<glyph unicode="&#xe922;" glyph-name="phone-rotary" d="M789.57 519.54c-18.584 34.833-54.665 56.457-94.124 56.457h-366.91c-39.457 0-75.541-21.626-94.124-56.457l-136.54-256.015c-8.208-15.416-12.542-32.769-12.542-50.187v-149.331c0-47.061 38.291-85.333 85.333-85.333h682.654c47.041 0 85.333 38.269 85.333 85.333v149.331c0 17.416-4.334 34.769-12.542 50.207l-136.538 255.996zM895.984 64.008c0-23.52-19.126-42.665-42.665-42.665h-682.656c-23.542 0-42.665 19.146-42.665 42.665v149.331c0 10.438 2.626 20.876 7.542 30.125l136.54 255.996c11.126 20.896 32.791 33.875 56.457 33.875h366.91c23.666 0 45.333-12.98 56.457-33.875l136.54-255.976c4.916-9.27 7.542-19.708 7.542-30.145v-149.331zM426.625 405.334c0-23.563-19.102-42.665-42.665-42.665s-42.665 19.102-42.665 42.665c0 23.563 19.102 42.665 42.665 42.665s42.665-19.102 42.665-42.665zM426.625 277.336c0-23.563-19.102-42.665-42.665-42.665s-42.665 19.102-42.665 42.665c0 23.563 19.102 42.665 42.665 42.665s42.665-19.102 42.665-42.665zM426.625 149.338c0-23.563-19.102-42.665-42.665-42.665s-42.665 19.102-42.665 42.665c0 23.563 19.102 42.665 42.665 42.665s42.665-19.102 42.665-42.665zM554.664 149.338c0-23.563-19.102-42.665-42.665-42.665s-42.665 19.102-42.665 42.665c0 23.563 19.102 42.665 42.665 42.665s42.665-19.102 42.665-42.665zM682.62 149.338c0-23.563-19.102-42.665-42.665-42.665s-42.665 19.102-42.665 42.665c0 23.563 19.102 42.665 42.665 42.665s42.665-19.102 42.665-42.665zM554.664 277.336c0-23.563-19.102-42.665-42.665-42.665s-42.665 19.102-42.665 42.665c0 23.563 19.102 42.665 42.665 42.665s42.665-19.102 42.665-42.665zM682.62 277.336c0-23.563-19.102-42.665-42.665-42.665s-42.665 19.102-42.665 42.665c0 23.563 19.102 42.665 42.665 42.665s42.665-19.102 42.665-42.665zM554.664 405.334c0-23.563-19.102-42.665-42.665-42.665s-42.665 19.102-42.665 42.665c0 23.563 19.102 42.665 42.665 42.665s42.665-19.102 42.665-42.665zM682.62 405.334c0-23.563-19.102-42.665-42.665-42.665s-42.665 19.102-42.665 42.665c0 23.563 19.102 42.665 42.665 42.665s42.665-19.102 42.665-42.665zM1006.482 701.955c-132.040 138.872-307.661 215.37-494.511 215.37-186.831 0-362.452-76.499-494.471-215.372-11.624-12.228-17.5-28.284-17.5-44.339s5.874-32.105 17.5-44.325l98.332-103.478c23.126-24.292 64.165-24.292 87.29 0 32.895 34.603 70.291 63.125 110.956 84.665 20.376 10.5 33.541 32.603 33.353 53.499l14.876 112.124c107.164 34.291 193.227 34.269 299.391 0.020l14.666-109.332c0-23.646 12.542-45.229 33.041-56.499 40.875-21.646 78.269-50.165 111.186-84.749 11.562-12.188 27.062-18.876 43.645-18.876 16.562 0 32.061 6.688 43.625 18.854l98.624 103.748c11.25 11.834 17.138 27.256 17.5 42.791 0.382 16.574-5.504 33.275-17.504 45.899zM975.567 642.684l-98.624-103.768c-6.896-7.23-18.584-7.208-25.438 0.020-36.103 37.937-77.187 69.249-121.852 92.894-6.646 3.666-10.626 10.75-10.812 21.77l-16.626 125.374c-1.062 8.020-6.584 14.75-14.23 17.376-62.229 21.312-118.81 31.957-175.559 31.957-56.729 0-113.602-10.646-176.371-31.937-7.688-2.604-13.23-9.354-14.292-17.396l-16.812-128.186c0-7.792-4.188-15.188-10.626-18.5-44.957-23.812-86.040-55.125-122.124-93.060-6.876-7.208-18.584-7.188-25.458-0.020l-98.332 103.478c-7.708 8.084-7.708 21.77 0 29.853 123.896 130.35 288.519 202.12 463.558 202.12s339.682-71.769 463.596-202.122c7.708-8.082 7.708-21.77 0-29.853z" />
<glyph unicode="&#xe923;" glyph-name="phone-office" d="M947.203-64.003h-870.403c-42.244 0-76.8 34.566-76.8 76.8v742.406c0 42.234 34.556 76.8 76.8 76.8h76.8v-51.206h-76.8c-14.081 0-25.603-11.512-25.603-25.594v-742.406c0-14.081 11.522-25.594 25.603-25.594h870.403c14.081 0 25.594 11.512 25.594 25.594v742.406c0 14.081-11.512 25.594-25.594 25.594h-435.206v51.206h435.206c42.234 0 76.8-34.566 76.8-76.8v-742.406c0-42.234-34.566-76.8-76.8-76.8zM460.8 64.003h-256.003c-42.234 0-76.8 34.556-76.8 76.8v742.397c0 42.244 34.566 76.8 76.8 76.8h256.003c42.244 0 76.8-34.556 76.8-76.8v-742.397c0-42.244-34.556-76.8-76.8-76.8zM204.797 908.803c-14.081 0-25.594-11.522-25.594-25.603v-742.397c0-14.081 11.512-25.603 25.594-25.603h256.003c14.081 0 25.603 11.522 25.603 25.603v742.397c0 14.081-11.522 25.603-25.603 25.603zM895.997 524.803h-281.597v179.194h281.597zM665.597 576h179.203v76.8h-179.203zM793.603 192h102.394v-51.197h-102.394zM614.4 192h102.403v-51.197h-102.403zM793.603 319.997h102.394v-51.197h-102.394zM614.4 319.997h102.403v-51.197h-102.403zM793.603 448.003h102.394v-51.206h-102.394zM614.4 448.003h102.403v-51.206h-102.403z" />
<glyph unicode="&#xe924;" glyph-name="phone" d="M262.2 923c37.4-51.6 82.002-118.197 133.602-199.598 13-22 11-48.4-5.8-79.4-6.4-13-22.6-42.6-48.4-89.2 28.4-40 71.6-89.2 129.8-147.2s106.602-101.4 145.2-129.8c46.401 27.2 76.201 43.8 89.201 50.399 16.8 9 33 13.6 48.4 13.6 11.6 0 22-2.6 31-7.8 59.4-36.2 126.601-80.8 201.4-133.6 14.2-10.4 22.2-24.601 24.2-42.601 2-18.2-3.599-37.4-16.399-58.2-6.4-9-16.8-22.2-31-39.8-14.201-17.4-35.601-39.4-64.002-65.8s-51.6-39.802-69.8-39.802h-2c-136.6 5.4-305 107.801-504.4 307.201-199.6 199.6-302 367.8-307.2 504.6 0 18 13.2 41.6 39.8 70.8 26.4 29 48.2 50 64.799 63 16.8 12.8 31 23.2 42.6 31 14.2 10.4 30.4 15.4 48.4 15.4 22.2 0 38.8-7.8 50.6-23.2zM198.202 882.402c-27.2-19.4-52.603-41.198-76.603-64.998-23.8-24-37.8-41.6-41.6-53.2 5.2-120.2 101-273.2 287.6-459.2s340-282.2 460-288.6c10.4 3.8 27.4 18 51.4 42.6s45.6 50.399 64.8 77.399c3.8 5.2 5.2 9.6 3.8 13.6-77.4 54.2-142 97.4-193.8 129.801-5.2 0-11.6-2-19.4-5.8-11.6-6.4-40.6-22.6-87.2-48.4l-33-19.4-33 21.4c-42.6 29.6-94.199 75.6-154.999 137.6-60.6 60.6-105.8 112.4-135.6 155l-23.2 31 19.4 34.799c25.8 46.4 42 75.6 48.4 87.2 3.8 7.8 5.8 14.2 5.8 19.4-46 73.401-88.599 138-127.398 193.6h-2c-5 0-9.6-1.4-13.4-3.8z" />
<glyph unicode="&#xe925;" glyph-name="call-in" d="M1000.35 188.384c-15.664 11.008-187.059 124.974-208.066 137.806-9.152 5.6-20.32 8.336-32.464 8.336-15.664 0-33.008-4.56-49.935-13.472-16.497-8.688-66.464-37.12-90.913-51.088-21.536 15.12-72.127 53.872-151.84 133.664-79.215 79.184-118.319 130.191-133.535 151.84 13.936 24.432 42.336 74.4 50.976 90.848 16.368 31.008 18.225 61.968 4.944 82.848-12.463 19.68-125.968 191.808-137.68 208-11.024 15.28-30.816 23.536-52.287 23.536-16.944 0-34.912-5.12-50.496-15.968-1.504-1.072-152.097-110.256-150.097-172.352 5.553-174.432 175.056-379.424 316.271-520.688s346.224-310.815 521.344-316.399h1.44c61.312 0 169.089 148.688 170.129 150.16 28.272 40.4 17.968 84.88-7.791 102.929zM956.141 122.733c-40.592-56.224-98.225-114.945-120.784-123.346-120.032 5.632-288.464 111.12-474.88 297.568-186.4 186.464-291.872 354.704-297.44 474.336 8.096 22.624 66.815 80.624 122.527 120.912 4.128 2.848 9.216 4.496 13.968 4.496 1.055 0 1.935-0.096 2.624-0.224 18-26.16 114.624-172.433 132.16-199.776 0.064-2.88-0.911-10.19-6.4-20.623-5.84-11.12-24.032-43.536-49.904-88.88l-20.128-35.28 23.344-33.248c17.408-24.72 58.816-78.464 140.624-160.288 82.16-82.192 135.712-123.473 160.336-140.784l33.248-23.344 35.28 20.16c34.193 19.537 75.504 42.945 88.945 50 10.784 5.68 18.16 6.129 20.16 6.129 0.32 0 0.593 0 0.816-0.033 24.496-15.376 173.937-114.592 200.32-132.688 0.432-2.56 0.031-8.128-4.816-15.088zM643.836 583.483c4.128-4.176 9.938-6.722 16.386-6.546l11.712 0.273c0.223 0 0.383 0.095 0.64 0.11l229.503-1.007c12.912 0.304 23.616 10.992 23.92 23.937l0.016 16.416c-1.952 15.232-13.937 24.16-26.865 23.872l-151.504 0.4 261.952 261.6c12.497 12.496 12.497 32.769 0 45.265-12.496 12.48-32.752 12.48-45.248 0l-262.672-262.32 0.88 154.833c0.288 12.927-9.967 24.191-22.895 23.887l-16.416-0.015c-12.96-0.32-23.664-8.017-23.937-20.945l-0.656-231.008c0-0.223 0.88-0.383 0.88-0.607l-1.28-11.712c-0.128-6.496 1.391-12.272 5.584-16.433z" />
<glyph unicode="&#xe926;" glyph-name="call-out" d="M1000.35 188.384c-15.664 11.008-187.059 124.974-208.066 137.806-9.152 5.6-20.32 8.336-32.464 8.336-15.664 0-33.008-4.56-49.935-13.472-16.497-8.688-66.464-37.12-90.913-51.088-21.536 15.12-72.127 53.872-151.84 133.664-79.215 79.184-118.319 130.191-133.535 151.84 13.936 24.432 42.336 74.4 50.976 90.848 16.368 31.008 18.225 61.968 4.944 82.848-12.463 19.68-125.968 191.808-137.68 208-11.024 15.28-30.816 23.536-52.287 23.536-16.944 0-34.912-5.12-50.496-15.968-1.504-1.072-152.097-110.256-150.097-172.352 5.553-174.432 175.056-379.424 316.271-520.688s346.224-310.815 521.344-316.399h1.44c61.312 0 169.089 148.688 170.129 150.16 28.272 40.4 17.968 84.88-7.791 102.929zM956.141 122.733c-40.592-56.224-98.225-114.945-120.784-123.346-120.032 5.632-288.464 111.12-474.88 297.568-186.4 186.464-291.872 354.704-297.44 474.336 8.096 22.624 66.815 80.624 122.527 120.912 4.128 2.848 9.216 4.496 13.968 4.496 1.055 0 1.935-0.096 2.624-0.224 18-26.16 114.624-172.433 132.16-199.776 0.064-2.88-0.911-10.19-6.4-20.623-5.84-11.12-24.032-43.536-49.904-88.88l-20.128-35.28 23.344-33.248c17.408-24.72 58.816-78.464 140.624-160.288 82.16-82.192 135.712-123.473 160.336-140.784l33.248-23.344 35.28 20.16c34.193 19.537 75.504 42.945 88.945 50 10.784 5.68 18.16 6.129 20.16 6.129 0.32 0 0.593 0 0.816-0.033 24.496-15.376 173.937-114.592 200.32-132.688 0.432-2.56 0.031-8.128-4.816-15.088zM683.899 577.724l275.246 273.572-0.88-155.056c-0.288-12.944 9.968-24.192 22.912-23.889l16.416 0.016c12.96 0.32 23.649 8 23.921 20.928l0.656 231.008c0 0.223-0.864 0.383-0.864 0.607l1.264 11.712c0.128 6.496-1.376 12.288-5.6 16.432-4.128 4.175-9.935 6.72-16.384 6.543l-11.696-0.272c-0.224 0-0.4-0.096-0.655-0.128l-229.472 1.025c-12.928-0.289-23.616-10.977-23.92-23.921l-0.032-16.416c1.967-15.233 13.935-24.16 26.88-23.872l151.248-0.4-274.289-272.626c-12.497-12.496-12.497-32.768 0-45.264 12.496-12.481 32.752-12.481 45.248 0z" />
<glyph unicode="&#xe927;" glyph-name="call-end" d="M961.696 760.448c0-1.056-0.097-1.935-0.225-2.623-26.16-18-172.433-114.624-199.776-132.16-2.88-0.065-10.191 0.911-20.623 6.4-11.12 5.84-43.536 24.032-88.88 49.904l-35.28 20.128-33.248-23.344c-24.72-17.408-78.464-58.817-160.288-140.624-82.176-82.16-123.456-135.712-140.768-160.336l-23.344-33.248 20.16-35.28c19.537-34.193 42.945-75.504 50-88.945 5.68-10.784 6.129-18.16 6.129-20.16 0-0.32 0-0.593-0.033-0.816-15.36-24.497-114.593-173.937-132.673-200.32-2.56-0.432-8.128-0.032-15.088 4.816-56.256 40.608-114.96 98.24-123.376 120.8 5.632 120.032 111.12 288.464 297.568 474.88 186.464 186.4 354.72 291.872 474.352 297.44 22.624-8.096 80.624-66.815 120.912-122.527 2.832-4.128 4.48-9.232 4.481-13.985zM1023.7 760.449c0 16.944-5.121 34.914-15.969 50.498-1.055 1.504-108.256 152.096-170.336 150.096-174.432-5.552-379.439-175.056-520.703-316.271-141.232-141.216-310.8-346.224-316.385-521.344v-1.44c0-61.312 148.672-169.088 150.144-170.128 40.4-28.289 84.881-17.968 102.945 7.776 11.008 15.664 124.976 187.056 137.808 208.063 5.6 9.152 8.336 20.32 8.336 32.464 0 15.664-4.576 33.008-13.473 49.935-8.687 16.496-37.119 66.464-51.086 90.912 15.12 21.537 53.872 72.128 133.664 151.84 79.183 79.216 130.19 118.32 151.84 133.535 24.431-13.935 74.399-42.335 90.847-50.975 31.008-16.368 61.968-18.225 82.848-4.945 19.68 12.464 189.808 125.968 206 137.68 15.28 11.056 23.52 30.848 23.52 52.304z" />
<glyph unicode="&#xe928;" glyph-name="worldwide" d="M512.181 959.893c-204.864 0.030-390.016-122.084-470.65-310.412l-6.382-2.116 2.474-7.422c-106.167-261.846 20.034-560.18 281.88-666.347 61.156-24.797 126.532-37.526 192.525-37.49 282.71-0.043 511.927 229.106 511.97 511.817s-229.106 511.93-511.819 511.97zM913.704 189.912l-26.286 26.269v61.188c0.030 2.641-0.555 5.251-1.706 7.627l-66.546 132.905v64.226c0 5.703-2.847 11.031-7.593 14.197l-51.189 34.126c-4.012 2.679-8.971 3.534-13.65 2.355l-62.69-15.664-105.296 45.183-14.487 101.491 40.15 40.132h86.186l29.007-43.596c2.619-3.92 6.746-6.584 11.398-7.354l102.379-17.063c2.743-0.461 5.554-0.237 8.19 0.648l94.291 31.43c79.085-151.766 70.626-334.3-22.156-478.1zM843.327 791.753l-27.745-18.496-77.347 15.476-50.183 16.705c-3.071 1.043-6.377 1.175-9.521 0.375l-63.441-15.852-27.813 9.265 20.612 41.224h57.707c2.647-0.002 5.258 0.61 7.627 1.792l59.038 29.519c40.657-21.222 78.059-48.165 111.064-80.009zM325.138 887.665l40.951-27.301c2.013-1.339 4.287-2.235 6.672-2.628l82.688-13.787-8.071-24.144-43.084-14.384c-3.858-1.284-7.132-3.903-9.231-7.388l-49.005-81.664-78.712-47.231-116.029-16.568c-8.41-1.188-14.664-8.382-14.674-16.875v-51.189c0-4.526 1.8-8.864 4.999-12.064l29.127-29.127v-29.314l-70.983 47.333-25.748 77.245c48.988 111.934 138.776 201.003 251.101 249.087zM276.559 328.217l-77.125 15.442-28.666 57.178v40.098l63.577 63.577 23.53-47.077c2.89-5.784 8.805-9.438 15.271-9.436h109.784l46.224-77.040c3.084-5.134 8.634-8.273 14.623-8.276h47.435l-11.944-59.84-64.601-64.601c-3.206-3.197-5.010-7.535-5.017-12.064v-42.658l-61.427-46.070c-4.296-3.223-6.825-8.28-6.825-13.65v-61.632l-21.227 7.030-29.963 74.941v167.355c0.002 8.109-5.705 15.101-13.65 16.722zM225.267 65.912c-160.882 120.698-228.919 329.243-170.17 521.596l14.179-42.521c1.194-3.598 3.553-6.697 6.706-8.805l85.060-56.701-19.401-19.418c-3.199-3.199-4.999-7.538-4.999-12.064v-51.189c-0.002-2.647 0.61-5.258 1.792-7.627l34.126-68.252c2.363-4.714 6.772-8.071 11.944-9.095l71.665-14.316v-156.656c-0.002-2.167 0.41-4.317 1.211-6.33l34.126-85.316c1.868-4.66 5.695-8.263 10.46-9.845l51.189-17.063c1.711-0.58 3.502-0.879 5.307-0.887 9.423 0 17.063 7.64 17.063 17.063v76.784l61.427 46.070c4.296 3.223 6.825 8.28 6.825 13.65v44.125l63.253 63.253c2.378 2.382 3.999 5.418 4.658 8.719l17.063 85.316c1.847 9.242-4.146 18.23-13.388 20.077-1.098 0.22-2.214 0.331-3.334 0.331h-58.595l-46.224 77.040c-3.084 5.134-8.634 8.273-14.623 8.276h-108.897l-29.314 58.817c-2.455 4.91-7.122 8.34-12.541 9.214-5.418 0.936-10.948-0.851-14.794-4.778l-22.148-22.063v27.062c0 4.526-1.8 8.864-4.999 12.064l-29.127 29.127v29.331l104.802 14.964c2.25 0.326 4.415 1.098 6.365 2.269l85.316 51.189c2.393 1.438 4.398 3.442 5.836 5.836l47.947 79.907 45.2 15.084c5.104 1.674 9.11 5.678 10.784 10.784l17.063 51.189c2.956 8.947-1.9 18.599-10.848 21.555-0.825 0.273-1.672 0.482-2.53 0.627l-98.761 16.466-17.353 11.569c107.376 34.95 223.674 30.624 328.158-12.2l-31.174-15.562h-64.226c-6.499 0.036-12.452-3.624-15.357-9.436l-34.126-68.252c-4.204-8.433-0.776-18.68 7.657-22.884 0.719-0.358 1.461-0.665 2.222-0.919l51.189-17.063c3.071-1.043 6.377-1.175 9.521-0.375l63.441 15.852 46.48-15.476c0.665-0.239 1.35-0.422 2.048-0.546l85.316-17.063c4.436-0.904 9.052 0.004 12.814 2.525l38.836 25.902c19.113-21.288 36.289-44.238 51.326-68.577l-83.951-27.984-90.895 15.152-30.031 45.047c-3.148 4.72-8.438 7.565-14.111 7.593h-102.379c-4.526 0-8.864-1.8-12.064-4.999l-51.189-51.189c-3.801-3.799-5.59-9.167-4.829-14.487l17.063-119.442c0.86-5.906 4.741-10.933 10.238-13.258l119.442-51.189c3.421-1.482 7.239-1.787 10.852-0.87l60.932 15.237 37.249-24.878v-59.124c-0.030-2.641 0.555-5.251 1.706-7.627l66.546-132.905v-64.226c0-4.526 1.8-8.864 4.999-12.064l35.696-35.713c-158.309-211.013-457.707-253.739-668.72-95.428z" />
<glyph unicode="&#xe929;" glyph-name="map" d="M993.184 824.992l-320.961 133.069-319.44-126.432-321.968 126.368c-2.752 0.816-5.44 1.12-7.968 1.12-13.135 0.065-22.847-9.743-22.847-24.495v-830c0-17.568 13.872-35.872 30.816-40.56l322.336-127.184 319.008 129.504 321.024-126.128c2.752-0.752 5.44-1.12 7.969-1.12 13.12 0 22.847 9.744 22.847 24.495v820.736c0 17.569-13.872 35.89-30.816 40.625zM383.999 778.861l256 100.304v-761.504l-256-101.184v762.384zM63.999 873.309l256-94.577v-761.76l-256 104.272v752.064zM959.999 21.995l-256 96.384v759.824l256-110.384v-745.824z" />
<glyph unicode="&#xe92a;" glyph-name="location-pin" d="M515.664 960.368c-209.904 0-387.664-178.768-387.664-390.544 0-221.76 206.032-448.544 344.624-607.936 0.528-0.64 22.929-25.52 50.528-25.52h2.449c27.6 0 49.84 24.88 50.399 25.52 130.064 149.52 320 396.048 320 607.936 0 211.776-138.656 390.544-380.336 390.544zM528.496 4.816c-1.12-1.12-2.753-2.369-4.193-3.409-1.472 1.008-3.072 2.288-4.255 3.408l-16.737 19.248c-131.391 150.737-311.311 357.152-311.311 545.761 0 177.008 148.224 326.56 323.664 326.56 218.528 0 316.336-164 316.336-326.56 0-143.184-102.128-333.296-303.504-565.008zM513.119 766.592c-106.032 0-192-85.968-192-192s85.968-192 192-192 192 85.968 192 192-85.968 192-192 192zM513.119 446.592c-70.576 0-129.473 58.816-129.473 129.408 0 70.576 57.424 128 128 128 70.624 0 128-57.424 128-128 0.032-70.592-55.903-129.408-126.527-129.408z" />
<glyph unicode="&#xe92b;" glyph-name="direction" d="M966.912 661.84l-179.121 192c-5.871 6.258-14.192 10.157-23.424 10.16h-267.12l-1.008 66c0 16.56-14.336 30-32 30s-30-13.44-30-30l-0.975-66h-352.768c-17.68 0-32-14.32-32-32v-384c0-17.68 14.32-32 32-32h352.336v-450c0-16.56 14.336-30 32-30s32 13.44 32 30v450h267.536c8.88 0 17.344 3.68 23.408 10.16l179.12 192c11.472 12.304 11.472 31.376 0.016 43.68zM750.463 480h-637.968v320h637.968l149.28-160z" />
<glyph unicode="&#xe92c;" glyph-name="directions" d="M1017.060 773.936l-99.696 111.343c-5.883 6.609-14.413 10.752-23.911 10.752-0.009 0-0.018 0-0.027 0h-350.255v33.968c0 16.56-14.336 30-32 30s-32-13.44-32-30v-33.969h-255.808c-17.68 0-32-14.32-32-32v-223.664c0-17.68 14.32-32 32-32h255.808v-64.096h-348.591c-0.007 0-0.016 0-0.025 0-9.498 0-18.028-4.143-23.883-10.72l-0.028-0.032-99.681-113.311c-10.752-12.128-10.752-30.368 0-42.496l99.68-112.288c6.112-6.847 14.784-9.744 23.936-9.744h348.592v-289.679c0-16.56 14.336-30 32-30s32 13.44 32 30v289.68h256.464c17.68 0 32 14.32 32 32v224.607c0 17.68-14.32 32-32 32h-256.464v64.096h350.256c0.008 0 0.017 0 0.026 0 9.498 0 18.028 4.143 23.883 10.72l0.028 0.032 99.696 112.32c10.736 12.112 10.736 30.352 0 42.48v0.001zM767.647 319.679h-622.688l-71.28 79.28 71.28 81.312h622.688v-160.592zM879.039 672.367h-623.68v159.664h623.68l71.28-79.344z" />
<glyph unicode="&#xe92d;" glyph-name="compass" d="M733.184 679.728l-313.15-134.64c-5.691-2.937-10.214-7.46-13.072-12.984l-0.079-0.167-143.456-289.217c-5.872-11.537-3.745-25.537 5.311-34.785 5.484-5.571 13.107-9.023 21.536-9.024v0c4.432 0 8.944 0.976 13.12 3.008l305.726 126.977c5.647 2.751 10.177 7.050 13.139 12.346l0.077 0.151 150.88 296.896c6.432 11.6 4.527 26.031-4.656 35.567-9.216 9.536-23.584 11.872-35.376 5.872zM357.857 295.184l87.008 177.681 87.872-109.984zM584.705 400.384l-88.8 111.152 176.784 69.76zM512.001 960c-282.768 0-512-229.232-512-512 0-282.784 229.232-512 512-512 282.784 0 512 229.216 512 512 0 282.768-229.216 512-512 512zM512.001-1.008c-247.024 0-448 201.984-448 449.010 0 247.024 200.976 448 448 448s448-200.977 448-448-200.976-449.010-448-449.010z" />
<glyph unicode="&#xe92e;" glyph-name="layers" d="M21.84 658.192l475.090-258.72c4.423-2.453 9.698-3.899 15.31-3.904h0.002c5.563 0.002 10.794 1.424 15.35 3.924l-0.166-0.084 480.096 258.72c10.464 5.631 16.975 16.624 16.815 28.528-0.167 12.234-7.154 22.797-17.326 28.076l-0.178 0.084-475.12 241.28c-9.055 4.592-19.744 4.624-28.88 0.064l-480.048-241.28c-10.624-5.343-17.44-16.16-17.632-28.064s6.256-22.944 16.687-28.624zM517.153 891.713l406.159-206.271-410.976-221.472-406.176 221.184zM1001.34 479.682l-94.974 48.225-68.56-36.976 80-40.624-410.96-221.456-406.191 221.184 85.311 42.88-68.368 37.248-100.32-50.4c-10.624-5.344-17.44-16.16-17.633-28.065s6.256-22.944 16.688-28.624l475.088-258.72c4.423-2.453 9.698-3.898 15.311-3.903h0.001c5.563 0.002 10.794 1.424 15.35 3.924l-0.166-0.084 480.096 258.72c10.464 5.631 16.975 16.624 16.815 28.528-0.148 12.23-7.135 22.794-17.309 28.059l-0.178 0.084zM1001.35 255.683l-89.966 44.224-68.56-36.976 75.008-36.624-410.976-221.456-406.192 221.184 79.312 35.872-68.368 37.248-94.32-43.408c-10.626-5.344-17.442-16.16-17.634-28.065s6.255-22.944 16.687-28.624l475.088-258.72c4.423-2.453 9.699-3.898 15.312-3.903h0.001c5.563 0.002 10.793 1.425 15.349 3.924l-0.166-0.084 480.096 258.72c10.464 5.632 16.976 16.624 16.816 28.528-0.143 12.237-7.132 22.808-17.31 28.076l-0.178 0.084z" />
<glyph unicode="&#xe92f;" glyph-name="clock" d="M512 960c-282.768 0-512-229.232-512-512 0-282.784 229.232-512 512-512 282.784 0 512 229.216 512 512 0 282.768-229.216 512-512 512zM512-1.008c-247.024 0-448 201.984-448 449.010 0 247.024 200.976 448 448 448s448-200.977 448-448-200.976-449.010-448-449.010zM544 460.992v307.006c0 17.664-14.336 32-32 32s-32-14.336-32-32v-320c0-9.056 3.792-17.2 9.856-23.007 0.529-0.624 0.96-1.296 1.537-1.887l158.384-158.4c12.496-12.481 32.752-12.481 45.248 0 12.496 12.496 12.496 32.768 0 45.264z" />
<glyph unicode="&#xe930;" glyph-name="alarm-clock" d="M219.708 62.998l-50.088-77.071c-9.695-15.027-5.494-35.062 9.533-44.756 5.494-3.554 11.473-5.17 17.612-5.17 10.664 0 21.006 5.17 27.145 14.703l48.958 75.296c70.123-41.686 151.881-65.763 239.133-65.763 87.414 0 169.169 24.074 239.133 65.922l48.796-75.296c6.139-9.533 16.643-14.703 27.145-14.703 5.979 0 12.118 1.616 17.612 5.17 15.027 9.695 19.228 29.73 9.533 44.756l-49.926 77.071c107.287 85.797 176.279 217.806 176.279 365.648 0 258.361-210.21 468.571-468.571 468.571s-468.571-210.207-468.571-468.568c0-147.842 68.993-279.85 176.279-365.809zM512 832.749c222.814 0 403.942-181.128 403.942-403.942s-181.128-403.942-403.942-403.942-403.942 181.128-403.942 403.942 181.128 403.942 403.942 403.942zM619.934 291.305c6.139-5.332 13.734-7.917 21.327-7.917 9.047 0 17.936 3.716 24.398 10.987 11.794 13.41 10.34 33.769-3.071 45.563l-118.274 103.571v259.977c0 17.774-14.541 32.315-32.315 32.315s-32.315-14.541-32.315-32.315v-274.68c0-9.371 4.039-18.259 10.987-24.398zM108.058 791.87c8.402 0 16.805 3.233 23.105 9.695 38.456 39.263 82.082 72.063 129.423 97.592 15.672 8.402 21.651 27.952 13.249 43.788-8.402 15.672-27.952 21.651-43.788 13.249-53.318-28.599-102.114-65.277-145.254-109.389-12.442-12.766-12.28-33.283 0.486-45.725 6.46-6.141 14.7-9.209 22.779-9.209zM763.413 899.156c47.503-25.367 90.967-58.329 129.423-97.592 6.301-6.462 14.703-9.695 23.105-9.695 8.079 0 16.319 3.071 22.62 9.209 12.766 12.442 12.925 32.962 0.486 45.725-42.978 43.95-91.936 80.789-145.257 109.386-15.834 8.402-35.385 2.423-43.788-13.249-8.241-15.834-2.423-35.383 13.41-43.785z" />
<glyph unicode="&#xe931;" glyph-name="watch" horiz-adv-x="768" d="M256 896h256c35.4 0 64-28.6 64-64v-51.4c-56.4 32.8-122 51.4-192 51.4s-135.6-18.6-192-51.4v51.4c0 35.4 28.6 64 64 64zM128 736h2c-79.8-70.4-130-173.4-130-288s50.2-217.6 130-288h-2v-96c0-70.6 57.4-128 128-128h256c70.6 0 128 57.4 128 128v96h-2c79.8 70.4 130 173.4 130 288s-50.2 217.6-130 288h2v96c0 70.6-57.4 128-128 128h-256c-70.6 0-128-57.4-128-128v-96zM576 115.4v-51.4c0-35.4-28.6-64-64-64h-256c-35.4 0-64 28.6-64 64v51.4c56.4-32.6 122-51.4 192-51.4s135.6 18.8 192 51.4zM64 448c0 176.731 143.269 320 320 320s320-143.269 320-320v0c0-176.731-143.269-320-320-320s-320 143.269-320 320v0zM416 608c0 17.6-14.4 32-32 32s-32-14.4-32-32v-160c0-10.6 5.4-20.6 14.2-26.6l96-64c14.8-9.8 34.6-5.8 44.4 8.8s5.8 34.6-8.8 44.4l-81.8 54.6v142.8z" />
<glyph unicode="&#xe932;" glyph-name="watch-smart" horiz-adv-x="768" d="M192 864v-32h384v32c0 17.6-14.4 32-32 32h-320c-17.6 0-32-14.4-32-32zM128 828.8v35.2c0 53 43 96 96 96h320c53 0 96-43 96-96v-35.2c73-14.8 128-79.4 128-156.8v-448c0-77.4-55-142-128-156.8v-35.2c0-53-43-96-96-96h-320c-53 0-96 43-96 96v35.2c-73 14.8-128 79.4-128 156.8v448c0 77.4 55 142 128 156.8zM192 32c0-17.6 14.4-32 32-32h320c17.6 0 32 14.4 32 32v32h-384v-32zM160 768c-53 0-96-43-96-96v-448c0-53 43-96 96-96h448c53 0 96 43 96 96v448c0 53-43 96-96 96h-448zM416 608v-142.8l81.8-54.4c14.8-9.8 18.6-29.6 8.8-44.4s-29.6-18.6-44.4-8.8l-96 64c-9 6-14.2 16-14.2 26.6v159.8c0 17.6 14.4 32 32 32s32-14.4 32-32z" />
<glyph unicode="&#xe933;" glyph-name="trophy" d="M735.808 32.128h-449.936c-17.68 0-32-14.32-32-32s14.32-32 32-32h449.936c17.68 0 32 14.32 32 32s-14.304 32-32 32zM1017.31 838.368c-3.024 14.88-16.16 25.568-31.343 25.568h-156.624v31.936c0 17.68-14.32 32-32 32h-575.536c-17.68 0-32-14.32-32-32v-31.936h-151.776c-15.183 0-28.32-10.688-31.344-25.568-0.944-4.624-22.4-116.752 39.904-193.152 35.84-43.92 90.607-66.928 162.495-68.976 40.992-121.152 144.064-210.864 268.192-224.24v-222.912h-95.778c-17.68 0-32-14.32-32-32s14.32-32 32-32h258.69c17.68 0 32 14.32 32 32s-14.32 32-32 32h-98.912v222.88c124.336 13.12 227.632 102.8 268.736 224.080 74.336 1.088 130.736 24.24 167.393 69.168 62.304 76.416 40.848 188.528 39.904 193.152zM96.401 685.44c-28.336 34.496-31.184 85.41-29.744 114.497h123.153v-108.032c0-17.296 1.6-34.16 3.936-50.769-43.68 4.080-76.447 18.832-97.344 44.304zM765.345 691.905c0-153.088-114.721-277.663-255.713-277.663-141.056 0-255.808 124.56-255.808 277.663v171.968h511.536v-171.968h-0.015zM927.6 685.442c-21.68-26.432-56.032-41.488-102.272-44.864 2.384 16.784 4.016 33.84 4.016 51.328v108.032h128c1.44-29.12-1.408-80-29.744-114.496z" />
<glyph unicode="&#xe934;" glyph-name="screen-smartphone" d="M704.144 960h-384.288c-53.024 0-96-42.976-96-96v-832c0-53.024 42.976-96 96-96h384.288c53.024 0 96 42.976 96 96v832c0 53.024-42.976 96-96 96zM736.144 32c0-17.664-14.336-32-32-32h-384.288c-17.664 0-32 14.336-32 32v832c0 17.664 14.336 32 32 32h384.288c17.664 0 32-14.336 32-32v-832zM512.048 159.824c-35.28 0-63.84-28.592-63.84-63.824s28.576-63.841 63.84-63.841c35.28 0 63.84 28.608 63.84 63.84s-28.56 63.825-63.84 63.825zM576.048 864h-128c-17.664 0-32-14.336-32-32s14.336-32 32-32h128c17.664 0 32 14.336 32 32s-14.336 32-32 32z" />
<glyph unicode="&#xe935;" glyph-name="screen-tablet" d="M832.144 960h-640.288c-53.024 0-96-42.976-96-96v-832c0-53.024 42.976-96 96-96h640.288c53.024 0 96 42.976 96 96v832c0 53.024-42.976 96-96 96zM864.144 32c0-17.664-14.336-32-32-32h-640.288c-17.664 0-32 14.336-32 32v832c0 17.664 14.336 32 32 32h640.288c17.664 0 32-14.336 32-32v-832zM512.048 159.824c-35.28 0-63.84-28.592-63.84-63.824s28.56-63.841 63.84-63.841c35.264 0 63.84 28.608 63.84 63.84s-28.576 63.825-63.84 63.825zM576.048 864h-128c-17.664 0-32-14.336-32-32s14.336-32 32-32h128c17.664 0 32 14.336 32 32s-14.336 32-32 32z" />
<glyph unicode="&#xe936;" glyph-name="screen-desktop" d="M960 864.192h-896c-35.184 0-64-28.8-64-64v-544.192c0-35.184 28.816-63.983 64-63.983h416v-96.208h-160c-17.664 0-32-14.336-32-32s14.336-32 32-32h384c17.664 0 32 14.336 32 32s-14.336 32-32 32h-160v96.208h416c35.184 0 64 28.8 64 63.983v544.192c0 35.2-28.816 64-64 64zM960 256h-896v544.192h896v-544.192z" />
<glyph unicode="&#xe937;" glyph-name="mouse" d="M513.584 960c-158.128 0-289.504-128.225-289.504-286.337v-451.312c0-158.128 131.376-286.352 289.504-286.352s286.352 128.224 286.352 286.336v451.328c0 158.112-128.224 286.336-286.352 286.336v0.001zM735.936 222.335c0-122.592-99.742-222.336-222.351-222.336s-225.505 99.744-225.505 222.336v451.328c0 122.592 102.912 222.336 225.504 222.336s222.352-99.744 222.352-222.336v-451.328zM512.338 767.999c-17.664 0-32-14.336-32-32v-160c0-17.664 14.336-32 32-32s32 14.336 32 32v160c0 17.664-14.336 32-32 32z" />
<glyph unicode="&#xe938;" glyph-name="plane" d="M934.32 894.096c10.432 0 17.776-1.938 21.6-3.41 4.592-12.224 10.753-56.031-34.528-101.343l-230.992-230.976 1.664-28.656c3.504-59.968 10-167.44 15.6-259.567 4.944-82 9.633-159.44 9.936-166.032 0.16-4.529 0.225-5.601-3.999-10.689-9.44-11.472-27.056-30.912-41.904-47.024-23.024 62.032-71.408 193.057-98.128 266.4l-34.336 94.368-71.024-71.024-130.608-125.584-18.192-18.16-0.56-25.68c-0.432-20.496-0.336-57.28-0.288-89.712 0.064-22.592 0.129-43.12-0.031-54.432-0.288-0.528 4.368-1.152 3.936-1.904-2.784 4.464-5.776 9.28-8.944 14.288-26.336 42-62.784 100.096-73.904 118.224l-8.128 13.28-13.344 8.065c-48.528 29.311-102.288 63.151-135.088 84.287 1.136 0.656 2.063-2.816 2.815-2.415h2.128c10.32 0 27.376-0.224 46.496-0.496 25.008-0.336 53.376-0.752 75.088-0.752 8.32 0 15.712 0.064 21.664 0.192l25.68 0.592 18.16 18.16 125.744 129.712 70.784 70.752-93.935 34.56c-70.592 25.967-205.808 76.464-269.056 100.224 16.223 14.944 35.775 32.688 47.183 42.129 3.184 2.624 5.665 3.967 7.376 3.967l2.256-0.064c7.056-0.336 94.688-6.064 179.407-11.6 89.936-5.872 191.44-12.496 249.151-16.16l28.848-1.808 231.024 231.040c32.448 32.4 64.32 37.248 80.449 37.248zM934.321 958.093c-37.808 0-84.222-14.526-125.678-55.998l-210.608-210.592c-118.624 7.504-422.432 27.6-429.968 27.808-1.447 0.078-3.152 0.125-4.868 0.129h-0.012c-10.256 0-27.968-1.968-48.128-18.624-23.664-19.569-73.008-65.97-73.008-65.97-11.904-11.935-17.936-26.719-16.496-40.623 0.88-8.4 5.44-23.712 26.064-31.777 12.528-4.912 211.904-79.504 303.969-113.376l-125.744-129.712c-5.569-0.128-12.465-0.192-20.257-0.192-38.336 0-97.776 1.248-121.601 1.248-3.152 0-5.68 0-7.473-0.064-7.248-0.224-22.256 3.344-61.84-29.744l-2.816-2.624c-11.872-11.872-14.656-23.712-14.912-31.536-0.256-8.064 1.904-19.68 13.568-29.024 7.008-5.664 96.848-63.184 170.527-107.68 17.665-28.817 98.945-158 103.185-165.008 6.193-10.464 16.32-16.432 28.433-16.816h1.008c11.776 0 23.872 5.84 35.712 17.344 33.504 39.184 28.88 55.407 29.023 62.224 0.528 21.376-0.368 111.936 0.4 147.84l130.592 125.6c33.376-91.68 106.336-289.008 111.216-301.567 8.128-20.624 23.44-25.153 31.84-26 1.376-0.16 2.785-0.225 4.16-0.225 12.625 0 25.712 5.936 36.432 16.655 0 0 46.256 49.088 65.904 72.976 19.68 23.872 18.913 44.256 18.529 53.872-0.16 6.656-18.689 308.816-25.569 426.816l210.656 210.657c74.657 74.689 62.785 164.688 35.057 192.368-12.24 12.304-37.024 21.615-67.297 21.616z" />
<glyph unicode="&#xe939;" glyph-name="rocket" d="M691.2 499.2c-70.554 0-128 57.446-128 128s57.446 128 128 128 128-57.446 128-128-57.446-128-128-128zM691.2 704c-42.342 0-76.8-34.458-76.8-76.8s34.458-76.8 76.8-76.8 76.8 34.458 76.8 76.8-34.458 76.8-76.8 76.8zM25.6-64c-6.656 0-13.21 2.611-18.125 7.475-7.014 7.014-9.37 17.51-5.939 26.829 78.797 216.627 161.638 326.502 246.17 326.502 27.904 0 53.965-11.981 77.568-35.533 37.274-37.274 38.605-74.394 33.178-98.97-17.101-77.21-126.157-152.832-324.096-224.819-2.867-1.024-5.837-1.536-8.755-1.536zM247.757 245.658c-25.344 0-55.194-22.221-86.272-64.256-30.566-41.318-61.286-100.198-91.546-175.462 68.352 27.494 123.29 55.398 163.789 83.2 54.63 37.53 70.81 66.56 74.752 84.275s-2.406 34.662-19.405 51.661c-13.824 13.824-27.341 20.531-41.37 20.531zM998.4 960c-132.864 0-251.238-22.528-351.949-66.97-82.995-36.659-154.061-88.064-211.251-152.883-10.65-12.083-20.531-24.32-29.696-36.608-44.134-2.918-89.293-20.48-134.349-52.224-38.144-26.829-76.442-64-113.92-110.438-62.976-78.029-101.683-154.982-103.322-158.208-5.581-11.213-2.253-24.832 7.885-32.154 4.506-3.277 9.779-4.864 15.002-4.864 6.554 0 13.107 2.509 18.074 7.424 0.256 0.256 24.73 24.32 66.458 47.923 34.406 19.456 87.45 42.342 151.603 46.387 16.23-41.523 62.669-91.187 84.941-113.459s71.936-68.71 113.459-84.941c-4.045-64.154-26.931-117.197-46.387-151.603-23.654-41.779-47.667-66.202-47.872-66.406-8.858-8.858-9.984-22.886-2.662-33.075 4.966-6.861 12.749-10.65 20.787-10.65 3.891 0 7.782 0.87 11.418 2.714 3.226 1.638 80.179 40.346 158.208 103.322 46.438 37.478 83.61 75.776 110.438 113.92 31.744 45.107 49.254 90.214 52.224 134.349 12.237 9.114 24.474 18.995 36.608 29.696 64.819 57.19 116.224 128.256 152.883 211.251 44.442 100.659 66.97 219.085 66.97 351.949v25.6h-25.6zM159.078 457.83c48.794 70.81 123.392 158.618 207.462 186.214-33.229-58.214-50.432-111.667-56.627-145.562-59.341-3.635-110.49-20.89-150.835-40.653zM521.882 95.232c19.763 40.346 37.018 91.443 40.602 150.733 33.843 6.195 87.347 23.398 145.51 56.576-27.648-83.917-115.405-158.515-186.163-207.309zM770.253 409.6c-106.496-93.952-216.781-115.2-232.653-115.2-0.102 0-10.598 0.205-38.861 20.122-19.712 13.875-42.701 33.638-64.614 55.552s-41.677 44.902-55.552 64.614c-19.917 28.262-20.122 38.758-20.122 38.861 0 15.872 21.248 126.157 115.2 232.653 112.435 127.386 284.518 197.069 498.893 202.24-5.171-214.374-74.803-386.458-202.24-498.893z" />
<glyph unicode="&#xe93a;" glyph-name="cart-empty" horiz-adv-x="1152" d="M0 960h185.6l5.6-25 110.8-487h650l131.8 448h66.8l-150.6-512h-683.6l29-128h678.6v-64h-729.6l-5.6 25-154.4 679h-134.4v64zM368 0c26.51 0 48 21.49 48 48s-21.49 48-48 48v0c-26.51 0-48-21.49-48-48s21.49-48 48-48v0zM368 160c61.856 0 112-50.144 112-112s-50.144-112-112-112v0c-61.856 0-112 50.144-112 112s50.144 112 112 112v0zM960 48c0 26.51-21.49 48-48 48s-48-21.49-48-48v0c0-26.51 21.49-48 48-48s48 21.49 48 48v0zM800 48c0 61.856 50.144 112 112 112s112-50.144 112-112v0c0-61.856-50.144-112-112-112s-112 50.144-112 112v0zM758.6 777.4l-73.4-73.4 96-96-45.2-45.2-96 96-96-96-45.2 45.2 96 96-96 96 45.2 45.2 96-96 96 96 45.2-45.2-22.6-22.6z" />
<glyph unicode="&#xe93b;" glyph-name="pin" d="M1014.85 580.336l-368.158 370.015c-7.936 7.968-19.376 11.216-30.32 8.496-10.912-2.656-19.6-10.849-22.945-21.568-22.16-71.312-24.72-135.84-7.792-194.688-1.551-1.073-3.040-2.24-4.416-3.617l-171.104-171.072c-55.2 25.6-114.544 39.457-173.696 39.457-37.6 0-74.464-5.569-109.567-16.465-10.688-3.344-18.88-12-21.569-22.848-0.6-2.317-0.944-4.977-0.944-7.717 0-8.808 3.557-16.785 9.314-22.572l218.975-220.383-306.16-311.040-26.624-70.128 64.368 24.88 313.36 311.040 221.824-223.264c6.065-6.128 14.289-9.44 22.689-9.44 2.528 0 5.088 0.32 7.632 0.913 10.959 2.765 19.538 10.9 22.881 21.373l0.063 0.227c28.976 93.233 20.48 193.345-20.337 283.121l174.704 174.736c0.624 0.624 1.056 1.328 1.632 2 26.368-7.536 53.696-11.568 82.048-11.568 35.216 0 72.56 5.055 110.976 17.008 10.672 3.387 18.792 11.929 21.522 22.625l0.048 0.222c0.588 2.296 0.925 4.932 0.925 7.647 0 8.822-3.563 16.812-9.328 22.61l0.002-0.002zM603.153 135.854l-402.783 405.407c103.376 12.065 214.848-29.6 295.567-110.319 80.32-80.304 119.504-191.296 107.216-295.088zM600.227 403.454c-16.832 25.727-36.465 50.176-59.024 72.752-22.464 22.464-47.008 42.256-72.96 59.328l144.127 144.096c14.704-25.568 33.664-50 57.007-73.328 23.857-23.84 49.090-43.136 75.601-58.064zM714.626 651.55c-61.536 61.536-85.247 130.129-72.688 212.881l286.912-288.4c-82.656-11.856-151.6 12.895-214.225 75.519z" />
<glyph unicode="&#xe93c;" glyph-name="notebook" d="M849.152 960h-637.999c-46 0-66.032-34-66.032-66v-127.312h-34.928c-17.311 0-31.344-14.032-31.344-31.345 0-17.311 14.033-31.343 31.344-31.343h34.928v-128.752h-31.936c-17.312 0-31.344-14.033-31.344-31.344 0-17.313 14.032-31.345 31.343-31.345h31.936v-129.44h-32.624c-17.312 0-31.344-14.032-31.344-31.344s14.032-31.344 31.344-31.344h32.624v-128.464h-32.624c-17.312 0-31.344-14.032-31.344-31.343s14.032-31.344 31.344-31.344h32.624v-129.28c0-53.025 41.536-64 64.528-64h639.504c53.025 0 96 42.975 96 96v832c0 53.024-42.96 96-96 96zM209.121 0l-0.001 129.279h33.344c17.311 0 31.344 14.032 31.344 31.344s-14.033 31.344-31.344 31.344h-33.344v128.464h33.344c17.311 0 31.344 14.033 31.344 31.344s-14.033 31.344-31.344 31.344h-33.344v129.441h34.032c17.313 0 31.345 14.032 31.345 31.345 0 17.311-14.032 31.344-31.344 31.344h-34.032v128.751h31.024c17.312 0 31.344 14.032 31.344 31.343 0 17.313-14.032 31.345-31.344 31.345h-31.024v127.312c0 0.752 0.064 1.376 0.16 1.936 0.559 0.040 1.212 0.063 1.87 0.064h510.002v-896h-512.032zM881.152 31.999c0-17.664-14.336-32-32-32h-64v896h64c17.664 0 32-14.336 32-32v-832z" />
<glyph unicode="&#xe93d;" glyph-name="mustache" d="M792.848 223.28c-101.344 0-158.865 47.629-196.945 79.148-13.472 11.153-25.727 21.905-36.88 31.665-16.912 14.847-38 33.343-45.344 35.903-0.223 0-3.712 0.16-3.935 0.192-1.168-0.096-4.144-0.687-4.448-0.72-5.072-2.064-23.087-17.568-37.568-30-13.136-11.28-28.111-24.16-45.039-37.376l-3.088-2.368c-43.472-33.935-97.584-76.159-193.152-76.159-70.992 0-140.928 32.128-182.576 83.872-27.92 34.689-57.296 95.025-38.672 185.473 2.256 10.944 10.016 19.904 20.432 23.632 10.48 3.776 22.016 1.712 30.608-5.376 0.624-0.464 22.576-17.344 59.057-17.344 18.368 0 37.504 4.336 56.832 12.945 33.135 14.752 56.735 56.127 81.71 84.063 34.176 38.16 72.848 81.408 136.689 81.904 44.048 0 83.792-16.288 119.248-48.496 35.311 32.065 74.767 48.257 117.68 48.257 65.103-0.496 104.592-43.776 139.439-82 25.44-27.872 49.472-69.216 82.608-83.968 19.328-8.592 38.672-12.943 57.488-12.943 37.872 0 61.504 17.311 62.449 18.063 8.767 6.496 20.319 8.193 30.48 4.225 10.143-4 17.679-12.88 19.711-23.664 17.088-89.44-12.96-149.408-41.184-183.968-42.767-52.4-113.903-84.96-185.6-84.96zM510.733 434.125c0.992 0 3.683-0.095 4.627-0.19 0.032 0 4.688-0.336 4.688-0.369 0.336-0.032 3.008-0.368 3.296-0.432 23.153-3.28 44.624-22.128 77.216-50.688 10.704-9.408 22.496-19.744 35.472-30.496 34.784-28.816 78.097-64.656 156.816-64.656 53.311 0 105.743 23.632 136.783 61.68 20.4 24.975 31.009 54.72 31.68 88.784-15.024-4.689-33.28-8.192-54.32-8.192-27.664 0-55.568 6.192-82.976 18.368-45.248 20.095-76.304 69.12-103.68 99.152-34.529 37.872-57.473 61.088-92.081 61.376-46.16 0-75.953-29.056-94.416-50.912-6.033-7.12-14.817-11.216-24.097-11.216s-18.080 4.128-24.080 11.248c-18.529 21.936-48.416 51.12-93.84 51.12-35.088-0.257-57.408-23.281-90.992-60.85-27.056-30.223-57.696-79.471-103.231-99.68-27.392-12.191-55.104-18.367-82.304-18.367-20.4 0-38.064 3.408-52.624 8.032-0.032-34.72 10.111-64.912 30.335-90.032 29.936-37.153 81.040-60.256 133.439-60.256 74 0 114.896 31.935 154.464 62.815l3.088 2.416c16.048 12.529 30.24 24.752 42.688 35.44 28.512 24.497 47.329 40.69 67.649 44.289 0.015-0.016 9.695 1.616 16.4 1.616z" />
<glyph unicode="&#xe93e;" glyph-name="magnet" d="M960.288 899.824v29.008c0 17.68-14.32 32-32 32h-224.624c-17.68 0-32-14.32-32-32v-130.656c0-0.048 0.032-0.096 0.032-0.144v-397.52c0-96.32-54.336-174.656-150.656-174.656s-168.656 78.336-168.656 174.656v499.312h-0.095v29.008c0 17.68-14.32 32-32 32h-224.624c-17.68 0-32-14.32-32-32v-130.656c0-0.656 0.335-1.2 0.368-1.84v-410.496c0-248.912 198.784-450.656 447.664-450.656s448.656 201.744 448.656 450.656v513.984zM896.288 896.832v-128.336h-160.256v128.336h160.256zM288.288 896.832v-128.336h-160.256v128.336h160.256zM511.68-0.832c-213.216 0-383.663 173.472-383.663 386.655v318.672h160.336v-303.984c0-131.808 100.848-238.655 232.655-238.655s214.672 106.848 214.672 238.655v303.984h160.656v-318.672c0-213.184-171.424-386.655-384.656-386.655z" />
<glyph unicode="&#xe93f;" glyph-name="energy" d="M595.344 895.28v0zM595.344 895.28l-72.207-379.377 261.584-0.88-356.064-514.303 72.208 417.376-261.568 0.912zM595.393 959.279c-1.728 0-3.455-0.063-5.151-0.19-11.296-0.913-18.785-4.689-27.664-10.657-5.109-3.435-9.513-7.377-13.317-11.845l-0.075-0.091c-1.078-1.263-2.16-2.66-3.177-4.107l-0.12-0.181-358.608-474.608c-14.16-19.408-16.24-45.025-5.36-66.433 10.864-21.408 32.832-34.976 56.912-35.152l184.736-1.344-58.080-342.192c-5.52-29.408 10.16-58.72 37.76-70.528 7.472-3.297 16.185-5.216 25.346-5.216 0.016 0 0.032 0 0.047 0h-0.002c20.112 0 36.64 9.408 49.041 26.4l359.056 514.305c14.16 19.409 16.225 45.057 5.36 66.433-10.864 21.408-32.832 34.977-56.912 35.152l-184.736 0.32 57.456 300.88c1.159 4.5 1.825 9.667 1.825 14.988 0 0.024 0 0.048 0 0.071v-0.004c0 34.624-27.569 62.848-62.065 63.968-0.767 0.032-1.52 0.032-2.271 0.032z" />
<glyph unicode="&#xe940;" glyph-name="cursor" d="M921.088 856.768l-336.256-785.792-119.312 344.512-344.192 104.032zM1004.46 959.231c-6.096 0-13.52-1.728-22.096-5.36l-954.656-405.071c-34.383-14.592-36.56-42.704-4.847-62.464l395.296-123.584 129.36-403.264c9.28-15.184 20.496-22.72 31.263-22.72 11.936 0 23.296 9.152 31.040 27.248l408.272 953.728c11.056 25.888 4.768 41.487-13.632 41.487z" />
<glyph unicode="&#xe941;" glyph-name="chemistry" d="M810.416-10.72l-170.401 201.664v353.504h21.312c17.68 0 32 14.32 32 32s-14.32 32-32 32h-53.312c-17.68 0-32-14.32-32-32v-397.824c0-0.003 0-0.006 0-0.009 0-8.26 3.135-15.787 8.28-21.458l-0.024 0.027 130.368-157.343h-405.28l130.368 157.344c5.121 5.644 8.256 13.171 8.256 21.431 0 0.003 0 0.006 0 0.009v0 397.822c0 17.68-14.32 32-32 32h-53.313c-17.68 0-32-14.32-32-32s14.32-32 32-32h21.312v-353.504l-170.4-201.664c-5.117-5.656-8.248-13.191-8.248-21.459 0-4.696 1.010-9.156 2.825-13.174l-0.082 0.202c5.107-11.294 16.275-19.010 29.245-19.010 0.001 0 0.003 0 0.004 0h549.344c0.001 0 0.002 0 0.004 0 12.97 0 24.138 7.716 29.164 18.809l0.082 0.201c5.12 11.551 2.976 25.055-5.504 34.431zM479.999 640.32c35.264 0 63.84 28.592 63.84 63.84 0 35.216-28.576 63.807-63.84 63.807-35.28 0-63.84-28.591-63.84-63.807 0-35.248 28.56-63.84 63.84-63.84zM688.479 735.312c62.368 0 112.928 50.336 112.928 112.416s-50.544 112.416-112.928 112.416c-62.352 0-112.928-50.336-112.928-112.416s50.576-112.416 112.928-112.416zM687.983 896.337c26.656 0 48.336-21.584 48.336-48.128 0-26.528-21.68-48.128-48.336-48.128s-48.336 21.6-48.336 48.128c0.016 26.544 21.68 48.128 48.336 48.128z" />
<glyph unicode="&#xe942;" glyph-name="crop" d="M992 160l-128-0.002v593.904l119.456 119.296c12.48 12.496 12.48 32.769 0 45.265-12.496 12.496-32.769 12.496-45.265 0l-118.608-118.464h-595.583v128c0 17.68-14.32 32-32 32s-32-14.32-32-32v-128h-128c-17.68 0-32-14.32-32-32 0-17.664 14.32-32 32-32h128v-608c0-2.945 0.945-5.6 1.681-8.288 0.32-1.216 0.256-2.464 0.72-3.632 3.216-8.065 9.6-14.433 17.664-17.681 1.376-0.56 2.88-0.495 4.288-0.847 2.528-0.64 4.929-1.551 7.648-1.551h608v-128c0-17.68 14.32-32 32-32s32 14.32 32 32v128h128c17.68 0 32 14.32 32 32s-14.32 32-32 32zM755.488 735.998l-531.488-530.784v530.784h531.488zM269.28 159.998l530.72 529.984v-529.984z" />
<glyph unicode="&#xe943;" glyph-name="speedometer" d="M511.984 923.872c-281.968 0-511.345-229.408-511.345-511.376 0-177.152 89.68-339.185 239.903-433.408 14.944-9.472 34.688-4.88 44.097 10.096s4.88 34.72-10.096 44.095c-54.096 33.952-99.040 78.048-133.424 128.88l33.552 19.376c15.311 8.848 20.56 28.4 11.712 43.711-8.88 15.344-28.464 20.56-43.712 11.712l-33.6-19.391c-24.4 50.511-39.297 105.792-43.281 163.424h35.616c17.68 0 32 14.32 32 32s-14.32 32-32 32h-35.456c4.24 58.687 19.776 114.304 44.56 164.592l32.16-18.56c4.568-2.696 10.064-4.288 15.933-4.288 0.013 0 0.026 0 0.039 0h-0.002c11.055 0 21.807 5.744 27.743 16 8.847 15.312 3.6 34.88-11.712 43.713l-31.84 18.368c32.112 46.832 72.864 87.296 119.984 119.023l18.016-31.2c5.935-10.288 16.687-16 27.743-16 5.44 0 10.944 1.376 15.969 4.288 15.311 8.848 20.56 28.4 11.712 43.712l-17.953 31.072c49.329 23.792 103.68 38.656 160.976 42.816v-39.872c0-17.68 14.32-32 32-32s32 14.32 32 32v40c58.592-4.080 114.128-19.391 164.384-43.95l-17.36-30.049c-8.848-15.311-3.6-34.88 11.712-43.712 4.568-2.696 10.064-4.288 15.933-4.288 0.013 0 0.025 0 0.038 0h-0.002c11.055 0 21.807 5.712 27.743 16l17.28 29.936c47.050-32.318 86.54-71.787 117.891-117.297l0.989-1.519-29.968-17.312c-15.311-8.847-20.56-28.4-11.711-43.71 5.935-10.289 16.687-16 27.743-16 5.44 0 10.944 1.375 15.969 4.287l30.127 17.392c24.592-50.272 39.954-105.823 44.048-164.433h-35.134c-17.68 0-32-14.32-32-32s14.32-32 32-32h35.12c-4.048-56.88-18.592-111.439-42.496-161.312l-31.68 18.288c-15.28 8.848-34.912 3.568-43.712-11.713-8.848-15.311-3.6-34.88 11.712-43.712l31.776-18.351c-35.103-52.24-81.44-97.393-137.359-131.824-15.055-9.28-19.712-29.008-10.464-44.032 6.065-9.808 16.529-15.216 27.28-15.216 0.001 0 0.002 0 0.003 0 6.2 0 11.987 1.769 16.884 4.83l-0.134-0.078c152.464 93.904 243.472 256.784 243.472 435.632 0 281.952-229.408 511.36-511.376 511.36zM748.111 512.272c15.296 8.848 20.544 28.398 11.712 43.71-8.832 15.296-28.416 20.544-43.712 11.696l-173.824-100.352c-9.28 5.248-19.856 8.496-31.28 8.496-35.28 0-63.84-28.591-63.84-63.807 0-35.248 28.576-63.84 63.84-63.84 35.28 0 63.84 28.592 63.84 63.84 0 0.064-0.016 0.144-0.016 0.209z" />
<glyph unicode="&#xe944;" glyph-name="hourglass" d="M833.056 895.392h-64.465v-215.408c0-104.384-56.656-183.359-178.097-245.199 126.064-63.808 179.104-142.159 179.104-259.071 0-76.128-0.336-140-0.592-175.12h64.065c17.68 0 32-14.288 32-31.968s-14.32-32-32-32h-642.128c-17.68 0-32 14.32-32 32s14.32 31.968 32 31.968h65.935c-0.24 35.12-0.591 99.008-0.591 175.12 0 116.912 52.288 195.248 178.145 259.056-121.232 61.84-177.137 140.815-177.137 245.199v215.424h-66.352c-17.68 0-32 14.304-32 32 0 17.664 14.32 31.984 32 31.984h642.128c17.68 0 32-14.32 32-31.984-0.016-17.696-14.32-32-32.016-32zM320.271 175.712c0-76.288 0.353-140.224 0.593-175.12h384.176c0.223 34.912 0.592 98.848 0.592 175.12 0 89.008-33.12 158.032-193.185 224.4-160.016-66.368-192.176-135.393-192.176-224.4zM704.623 895.392h-383.359v-215.408c0-61.376 20.64-140.416 191.168-210.528 170.56 70.112 192.191 149.152 192.191 210.528v215.408z" />
<glyph unicode="&#xe945;" glyph-name="graduation" d="M990.848 263.696v258.144l16.096 8.496c10.464 5.44 17.055 16.225 17.183 28.032 0.128 11.777-6.256 22.689-16.592 28.368l-481.44 257.6c-9.631 5.28-21.28 5.249-30.976-0.095l-478.8-257.92c-10.193-5.681-16.496-16.464-16.432-28.161s6.496-22.4 16.817-27.97l210.384-111.983c-2.64-4.656-4.272-9.968-4.272-15.696v-270.784c0-9.12 3.905-17.84 10.72-23.904 6.945-6.16 73.441-60.096 276.753-60.096 202.592 0 270.88 50.976 278 56.784 7.44 6.064 11.744 15.152 11.744 24.784v277.729c0 4.496-0.944 8.768-2.608 12.64l129.424 68.369v-224.513c-18.976-11.104-31.84-31.472-31.84-55.024 0-35.344 28.656-64 64-64s64 28.656 64 64c0 23.697-13.040 44.145-32.16 55.2zM736.031 147.632c-25.152-12.096-91.712-35.904-225.744-35.904-134.88 0-199.936 25.344-223.472 37.536v237.136l207.808-110.624c4.386-2.418 9.613-3.84 15.173-3.84 0.004 0 0.008 0 0.012 0h-0.001c0.008 0 0.018 0 0.028 0 5.41 0 10.503 1.356 14.957 3.747l-0.169-0.083 211.408 111.664v-239.632zM510.063 340.19l-411.6 218.561 412.32 220.976 413.6-220.336z" />
<glyph unicode="&#xe946;" glyph-name="ghost" d="M511.984 960.128c-229.216 0-415.681-199.903-415.681-445.6v-546.672c0-13.216 8.16-25.088 20.496-29.84 3.712-1.471 7.632-2.16 11.504-2.16 8.848 0 17.536 3.68 23.712 10.527l120.592 133.12 94.431-130.432c5.832-7.998 15.148-13.152 25.67-13.215h0.234c10.476 0.003 19.773 5.043 25.604 12.829l0.060 0.083 94.816 127.344 93.184-127.152c5.888-7.973 15.251-13.088 25.809-13.088v0c0.001 0 0.003 0 0.005 0 10.549 0 19.907 5.1 25.742 12.969l0.061 0.086 95.569 130.288 118-132.624c8.816-9.904 22.944-13.376 35.28-8.624 12.4 4.72 20.624 16.624 20.624 29.905v546.672c0 245.68-186.496 445.584-415.712 445.584zM863.695 51.968l-88.402 99.376c-6.432 7.216-15.808 11.311-25.407 10.687-9.98-0.489-18.705-5.465-24.259-12.938l-0.061-0.086-93.12-127.008-93.008 126.912c-5.861 7.942-15.17 13.048-25.673 13.089h-0.134c-0.004 0-0.008 0-0.013 0-10.472 0-19.767-5.041-25.591-12.828l-0.060-0.084-94.689-127.152-92 127.088c-5.664 7.807-14.528 12.655-24.16 13.151-0.592 0.032-1.151 0.065-1.743 0.065-9.392-0.002-17.838-4.053-23.688-10.501l-0.024-0.027-91.376-100.848v463.68c0 210.4 157.776 381.601 351.68 381.601 193.937 0 351.713-171.184 351.713-381.6v-462.575h0.015zM671.997 607.84c-35.28 0-63.84-28.592-63.84-63.808 0-35.248 28.56-63.84 63.84-63.84s63.84 28.592 63.84 63.84c0 35.216-28.56 63.808-63.84 63.808zM351.997 607.84c-35.28 0-63.84-28.592-63.84-63.808 0-35.248 28.576-63.84 63.84-63.84s63.84 28.592 63.84 63.84c0 35.216-28.56 63.808-63.84 63.808z" />
<glyph unicode="&#xe947;" glyph-name="magic-wand" d="M1020.51 530.624l-102.783 153.678 51.152 178.816c3.184 11.216 0.064 23.28-8.224 31.504-8.256 8.256-20.256 11.311-31.536 8.031l-178.512-52.128-154.288 103.905c-9.712 6.529-22.16 7.313-32.464 1.937-10.369-5.312-17.025-15.871-17.409-27.503l-5.536-185.936-146.496-114.592c-9.183-7.184-13.712-18.816-11.872-30.32s9.808-21.087 20.816-25.023l137.456-49.28c-0.928-0.736-1.904-1.393-2.768-2.257l-530.752-530.753c-12.496-12.496-12.496-32.752 0-45.248 6.256-6.256 14.432-9.376 22.624-9.376s16.368 3.12 22.624 9.376l530.752 530.752c2.065 2.064 3.664 4.4 5.040 6.816l53.792-147.552c4.047-10.837 13.488-18.782 24.968-20.632l0.184-0.024c1.631-0.256 3.28-0.368 4.912-0.368 10.265 0.011 19.399 4.847 25.256 12.361l0.054 0.072 113.776 147.168 183.904 6.56c11.664 0.4 22.16 7.12 27.44 17.535 5.264 10.384 4.448 22.848-2.112 32.48zM794.049 537.454c-9.504-0.32-18.368-4.882-24.192-12.401l-87.472-113.104-48.976 134.32c-3.248 8.944-10.32 15.936-19.28 19.152l-134.592 48.256 112.624 88.064c7.504 5.872 11.968 14.752 12.288 24.256l4.256 142.944 118.592-79.872c5.033-3.415 11.241-5.452 17.926-5.452 3.179 0 6.251 0.461 9.151 1.319l-0.228-0.058 137.248 40.095-39.344-137.472c-0.774-2.629-1.219-5.649-1.219-8.774 0-6.748 2.077-13.010 5.626-18.184l-0.071 0.109 80.56-118.128z" />
<glyph unicode="&#xe948;" glyph-name="eyeglass" d="M1025.38 308.208c-0.976 13.84-53.008 319.313-61.151 368.226-0.785 4.688-1.409 9.68-2.096 14.944-6.288 49.153-18.032 140.624-165.473 140.624-17.68 0-32-14.32-32-32s14.32-32 32-32c91.12 0 95.936-37.408 102-84.784 0.785-6.064 1.537-11.872 2.434-17.28 3.744-22.528 20.704-112.16 35.343-201.024-37.551 28.624-84.288 45.807-135.12 45.807-81.648 0-154.32-43.952-194.272-109.36-19.215 7.264-51.824 16.336-95.392 16.336-42.945 0-74.513-9.135-94.032-17.088-38.848 65.825-110.304 110.128-192.271 110.128-53.264 0-102.735-18.72-141.84-49.84 14.832 89.985 32.4 182.033 36.208 205.025 0.912 5.408 1.664 11.215 2.431 17.28 6.065 47.376 10.881 84.784 102.001 84.784 17.68 0 32 14.32 32 32s-14.32 32-32 32c-147.44 0-159.185-91.472-165.473-140.624-0.688-5.248-1.312-10.256-2.097-14.944-8.16-48.912-57.007-352.368-57.967-366.225-0.224-3.088 0.144-6.048 0.753-8.944-0.304-4.624-0.72-9.215-0.72-13.904 0-123.344 103.344-223.344 226.688-223.344s223.344 100 223.344 223.344c0 18.656-2.544 36.672-6.848 53.984 13.12 5.28 36.832 12.335 69.808 12.335 32.176 0 56.464-6.431 70.304-11.328-4.609-17.631-7.329-35.967-7.329-54.992 0-123.344 103.344-223.344 226.688-223.344s223.344 100 223.344 223.344c0 3.344-0.351 6.608-0.495 9.92 0.976 3.488 1.52 7.137 1.232 10.944zM225.344 128.018c-88.192 0-162.688 72.976-162.688 159.344s74.496 159.344 162.688 159.344c87.872 0 159.344-71.472 159.344-159.344s-71.472-159.344-159.344-159.344zM801.312 128.018c-88.192 0-162.689 72.978-162.689 159.346s74.496 159.344 162.688 159.344c76 0 139.632-53.488 155.456-124.784 0.656-6.528 1.2-12.672 1.616-18.288 0.193-2.689 0.912-5.217 1.84-7.665 0.16-2.88 0.433-5.712 0.433-8.624 0-87.857-71.472-159.328-159.344-159.328z" />
<glyph unicode="&#xe949;" glyph-name="shield" d="M907.952 815.52c-11.401 10.665-26.767 17.215-43.663 17.217v0c-1.472 0-2.943-0.065-4.4-0.16-0.912-0.065-11.184-0.689-27.28-0.689-26.656 0-78.688 1.808-127.969 13.936-63.664 15.631-137.12 88.16-158.496 102.464-9.983 6.754-22.29 10.782-35.538 10.782-0.010 0-0.021 0-0.031 0h0.002c-13.243-0.006-25.547-4.021-35.765-10.897l0.229 0.145c-2.592-1.744-79.504-84.032-154.752-102.496-49.248-12.127-102.288-13.935-128.912-13.935-16.096 0-26.369 0.624-27.376 0.689-1.253 0.096-2.726 0.154-4.212 0.16h-0.013c-16.942-0.011-32.346-6.583-43.811-17.313l0.036 0.033c-12.945-12.096-20.32-29.008-20.32-46.72v-160.032c0-591.632 387.12-667.808 403.567-670.783 3.397-0.633 7.309-0.999 11.305-1.008h0.008c3.776 0 7.6 0.336 11.312 1.008 16.432 2.976 406.4 79.151 406.4 670.783v160.032c0 0.027 0 0.058 0 0.089 0 18.418-7.803 35.013-20.283 46.66l-0.037 0.034zM864.305 608.704c0-544.912-353.714-607.777-353.714-607.777s-350.88 62.88-350.88 607.776v160.032s12.096-0.848 31.68-0.848c33.568 0 90.032 2.464 144.16 15.776 88.624 21.744 175.024 111.407 175.024 111.407s90.256-89.664 178.784-111.408c54.192-13.312 109.68-15.776 143.249-15.776 19.568 0 31.68 0.848 31.68 0.848s0.016-20.352 0.016-160.031h0.001zM647.599 613.759c-12.496 12.496-32.769 12.496-45.249 0l-90.512-90.512-90.511 90.512c-12.497 12.496-32.769 12.496-45.265 0s-12.496-32.769 0-45.249l90.512-90.512-90.512-90.511c-12.496-12.48-12.496-32.753 0-45.25s32.769-12.496 45.265 0l90.511 90.512 90.512-90.511c12.48-12.497 32.753-12.497 45.249 0s12.496 32.768 0 45.249l-90.512 90.511 90.513 90.512c12.496 12.48 12.496 32.753 0 45.249z" />
<glyph unicode="&#xe94a;" glyph-name="fire" d="M508.416-63.28c-241.248 0-412.369 167.28-412.369 397.777 0 122.368 73.376 254.192 76.496 259.712 6.368 11.343 18.88 17.504 31.936 16.063 13.029-1.728 23.484-11.069 26.828-23.342l0.052-0.225c0.192-0.752 19.968-74.752 46.064-115.84 17.536-27.649 35.312-47.185 55.312-60.753-13.536 58.656-23.904 146.912-7.024 237.472 46.336 248.576 241.984 308.048 250.369 310.448 10.784 3.088 22.225 0.32 30.433-7.151 8.192-7.504 11.936-18.752 9.808-29.665-0.32-1.744-32.624-175.776 35.936-324.064 6.223-13.471 14.912-29.12 24.256-44.784 2.656 21.504 6.784 44.368 13.12 66.56 25.152 87.969 90.192 118 92.944 119.217 10.848 4.944 23.504 3.312 32.88-4.032 7.467-5.924 12.214-14.997 12.214-25.179 0-2.060-0.194-4.075-0.566-6.028l0.032 0.2c-0.336-2.16-9.409-62.033 41.536-146.944 46-76.672 59.28-126.368 59.28-221.681 0-230.48-176.432-397.761-419.536-397.761zM195.695 492.32c-17.568-44.304-35.665-103.246-35.665-157.806 0-193.408 144.192-333.776 348.368-333.776 206 0 355.536 140.368 355.536 333.776 0 83.536-10.32 122.32-50.16 188.752-26.624 44.368-39.777 84.256-46.065 116-6.336-10.256-12.223-22.784-16.527-37.872-19.504-68.193-14.592-147.937-14.527-148.753 0.944-14.273-7.744-27.473-21.248-32.257s-28.529-0.064-36.817 11.663c-2.4 3.408-59.312 83.968-84.4 138.24-52.096 112.592-51.216 234.336-45.904 304.464-52.72-30.72-133.664-99.344-159.664-238.912-25.312-135.808 23.872-271.6 24.4-272.943 4.256-11.088 2-23.664-5.808-32.592-7.84-8.88-19.904-12.815-31.536-10.030-3.967 0.975-94.032 24.399-152.336 116.286-10.416 16.464-19.76 36.384-27.647 55.76z" />
<glyph unicode="&#xe94b;" glyph-name="game-controller" d="M743.216 884.448c-25.6 12.016-49.806 23.328-71.838 34.384-56.464 28.288-107.664 42.032-156.464 42.032-98.288 0-166.304-56.704-208.96-99.36l-206.848-207.072c-110.688-110.8-128.368-223.6-57.265-365.808 11.025-22.080 22.369-46.336 34.369-72.033 64.704-138.384 131.584-281.487 241.056-281.487 3.072 0 6.112 0.096 9.216 0.336 112.976 8.848 145.023 154.288 173.312 282.592 4.496 20.32 8.751 39.809 13.12 57.28 7.6 30.209 22.56 48.976 63.551 90.064l5.632 5.664 3.472 3.472 9.12 9.088c41.088 41.088 59.856 56.032 90.096 63.664 17.311 4.351 36.752 8.64 57.024 13.088 128.224 28.303 273.6 60.368 282.4 173.52 8.879 114.833-138.465 183.84-280.993 250.576zM958.466 639.665c-6.224-79.776-184.813-103.324-291.102-129.98-47.008-11.872-75.616-36.752-118.784-79.936-3.008-3.007-6.032-6.015-9.088-9.070-3.024-3.025-6.032-6.097-9.057-9.090-43.168-43.215-68-71.807-79.824-118.88-26.672-106.384-50.191-285.168-129.87-291.44-1.2-0.092-2.598-0.145-4.009-0.145-0.11 0-0.22 0-0.33 0.001h0.017c-84.544 0-155.68 192.24-218.447 317.664-63.744 127.504-36.433 210.224 45.36 292.096 15.696 15.727 35.215 35.247 59.135 59.182 24.432 24.464 53.487 53.552 87.919 88 23.904 23.936 43.408 43.424 59.12 59.184 50.8 50.848 101.936 80.64 163.92 80.64 37.808 0 79.632-11.056 127.872-35.248 127.456-63.905 323.888-136.48 317.168-222.978zM478.788 608.725h64v64h-64v-64zM478.788 704.725h64v64h-64v-64zM574.788 704.725h64v64h-64v-64zM574.788 608.725h64v64h-64v-64zM329.893 416.564l24.336 24.336c12 12 12 31.472 0 43.456-12 12-31.44 12-43.44 0l-24.352-24.352-24.352 24.352c-12 12-31.44 12-43.44 0s-12-31.456 0-43.456l24.351-24.352-24.351-24.351c-12-11.985-12-31.44 0-43.44s31.456-12 43.44 0l24.352 24.335 25.056-25.055c12-12 31.44-12 43.44 0s12 31.471 0 43.471z" />
<glyph unicode="&#xe94c;" glyph-name="badge" d="M1021.060 120.032l-187.262 346.304c19.104 43.36 29.792 91.28 29.792 141.696 0 194.304-157.52 351.808-351.808 351.808-194.336 0-351.84-157.52-351.84-351.808 0-51.632 11.216-100.624 31.184-144.784l-188.096-343.056c-6.065-11.024-5.057-24.624 2.527-34.688 7.6-10.033 20.432-14.752 32.687-11.873l160.624 36.848 54.976-153.12c4.288-11.904 15.152-20.16 27.744-21.088 0.817-0.064 1.6-0.096 2.368-0.096 12.132 0.005 22.685 6.759 28.108 16.712l0.084 0.168 163.696 304.975c10.734-1.151 23.186-1.808 35.791-1.808 0.046 0 0.091 0 0.137 0h-0.007c11.12 0 22.095 0.576 32.943 1.6l167.248-305.008c5.543-9.982 16.023-16.625 28.055-16.625 0.882 0 1.755 0.036 2.619 0.106l-0.114-0.007c12.56 1.008 23.376 9.248 27.631 21.088l54.976 153.12 160.624-36.848c12.32-2.975 25.024 1.809 32.624 11.809 7.632 9.984 8.656 23.52 2.688 34.576zM289.778 46.656l-40.258 112.161c-5.504 15.248-21.471 24.128-37.28 20.368l-118.8-27.248 135.41 246.976c44.592-60.24 107.952-105.68 181.44-127.793zM224.225 608.033c0 158.544 129.009 287.536 287.568 287.536 158.544 0 287.536-128.992 287.536-287.536s-128.992-287.568-287.536-287.568c-158.576 0-287.568 129.024-287.568 287.568zM811.745 179.186c-15.872 3.744-31.776-5.12-37.28-20.367l-40.529-112.976-123.152 224.56c75.44 22.096 140.337 68.735 185.505 130.735l134.848-249.328z" />
<glyph unicode="&#xe94d;" glyph-name="car" d="M952.922 572.304l-76.578 255.259c-12.281 40.938-49.251 68.438-91.968 68.438h-544.752c-42.719 0-79.689-27.5-91.968-68.438l-76.578-255.259c-40.812-11.054-71.078-48.038-71.078-92.303v-288c0-35.281 28.718-63.999 63.999-63.999v-32.001c0-52.938 43.062-96 96-96h63.999c52.938 0 96 43.062 96 96v32.001h384v-32.001c0-52.938 43.062-96 96-96h63.999c52.938 0 96 43.062 96 96v32.001c35.281 0 63.999 28.718 63.999 63.999v288c0.004 44.265-30.262 81.249-71.074 92.303zM208.967 809.187c4.094 13.656 16.407 22.813 30.655 22.813h544.75c14.25 0 26.562-9.156 30.655-22.813l69.957-233.186h-745.977zM255.997 95.997c0-17.657-14.344-32.001-32.001-32.001h-63.999c-17.657 0-32.001 14.344-32.001 32.001v32.001h128zM895.998 95.997c0-17.657-14.344-32.001-32.001-32.001h-63.999c-17.657 0-32.001 14.344-32.001 32.001v32.001h128zM63.997 191.997v288c0 17.657 14.344 32.001 32.001 32.001h832c17.657 0 32.001-14.344 32.001-32.001v-288zM227.747 433.011c-52.938 0-96-43.062-96-96s43.062-96 96-96 96 43.062 96 96-43.062 96-96 96zM227.747 305.011c-17.657 0-32.001 14.344-32.001 32.001s14.344 32.001 32.001 32.001 32.001-14.344 32.001-32.001-14.344-32.001-32.001-32.001zM820.609 433.011c-52.938 0-96-43.062-96-96s43.062-96 96-96 96 43.062 96 96-43.062 96-96 96zM820.609 305.011c-17.657 0-32.001 14.344-32.001 32.001s14.344 32.001 32.001 32.001 32.001-14.344 32.001-32.001-14.344-32.001-32.001-32.001z" />
<glyph unicode="&#xe94e;" glyph-name="crown" d="M1024 696.062c0 56.086-46.008 101.719-102.547 101.719-56.547 0-102.555-45.633-102.555-101.719 0-32.508 15.477-61.484 39.484-80.117l-193.469-139.133-109.977 194.359c33.766 16.664 57.031 51.234 57.031 91.117 0 56.086-46 101.711-102.547 101.711s-102.547-45.625-102.547-101.711c0-40.367 23.828-75.313 58.258-91.734l-101.508-193.961-198.539 146.281c24.313 18.617 40.016 47.781 40.016 80.531 0 56.086-46.008 101.719-102.555 101.719-56.539 0-102.547-45.633-102.547-101.719 0-47.922 33.602-88.188 78.656-98.891l115.445-440.688v-102.273c0-16.57 13.43-30 30-30h584.203c16.563 0 30 13.43 30 30v102.477l107.336 433.203c44.906 10.82 78.359 51.008 78.359 98.828zM921.453 737.781c23.461 0 42.547-18.711 42.547-41.711 0-23.008-19.086-41.719-42.547-41.719-23.469 0-42.555 18.719-42.555 41.719s19.086 41.711 42.555 41.711zM509.422 804c23.461 0 42.547-18.711 42.547-41.711 0-22.898-18.922-41.531-42.234-41.703-0.086 0.008-0.172 0.008-0.258 0.008-0.156 0-0.32 0-0.477 0-23.273 0.219-42.133 18.828-42.133 41.695 0 23 19.086 41.711 42.555 41.711zM60 703.406c0 23.008 19.086 41.719 42.547 41.719 23.469 0 42.555-18.711 42.555-41.719 0-23-19.086-41.711-42.555-41.711-23.461 0-42.547 18.711-42.547 41.711zM254.102 91.555v46.117l524.203 0.016v-46.133zM784.828 197.687l-537.563-0.016-94.188 359.531 203.109-149.656c7.047-5.195 16.016-7.055 24.539-5.086 8.531 1.969 15.781 7.57 19.836 15.328l109.945 210.070 118.664-209.703c4.195-7.414 11.344-12.695 19.672-14.523 8.32-1.828 17.031-0.031 23.953 4.945l199.906 143.766z" />
<glyph unicode="&#xe94f;" glyph-name="speech" d="M960 896.4h-895.999c-35.344 0-64-28.656-64-64v-577.504c0-35.344 28.656-64 64-64h127.536v-159.312c0-0.004 0-0.008 0-0.012 0-13.203 8.003-24.536 19.423-29.413l0.209-0.079c3.651-1.575 7.901-2.493 12.366-2.496h0.001c0.007 0 0.015 0 0.023 0 8.733 0 16.648 3.506 22.413 9.188l-0.004-0.004 185.024 182.128h529.008c35.343 0 64 28.656 64 64v577.504c0 35.343-28.657 64-64 64zM960.001 254.912h-555.216l-149.248-146.912v146.912h-191.536v577.488h896v-577.488zM224.001 510.992h576c17.664 0 32 14.336 32 32s-14.336 32-32 32h-576c-17.664 0-32-14.336-32-32s14.336-32 32-32zM224.001 638.992h576c17.664 0 32 14.336 32 32s-14.336 32-32 32h-576c-17.664 0-32-14.336-32-32s14.336-32 32-32zM224.001 382.992h384c17.664 0 32 14.336 32 32s-14.336 32-32 32h-384c-17.664 0-32-14.336-32-32s14.336-32 32-32z" />
<glyph unicode="&#xe950;" glyph-name="bubble" d="M512 832c247.024 0 448-143.553 448-320.001 0-176.432-200.976-320-448-320l-26.512-0.096c-17.584 0-29.088 0.464-47.072 3.153l-35.856 5.12-23.008-27.84c-10.576-12.784-64.544-57.12-124.112-85.664 12.112 32.032 21.040 67.008 21.84 101.6l0.32 1.904v44.624l-34.864 17.808c-113.6 58.112-178.736 152.64-178.736 259.392 0 176.448 200.976 320 448 320zM512 895.999c-282.8 0-512-171.935-512-383.999 0-132.064 78.256-247.152 213.584-316.336 0-0.816-0.256-1.408-0.256-2.32 0-57.376-32.16-120.464-51.008-152.944h0.048c-1.488-3.49-2.368-7.313-2.368-11.41 0-16.080 12.96-28.992 29.008-28.992 2.416 0 6.256 0.496 7.664 0.496 0.336 0 0.528 0 0.496-0.095 100 16.336 209.952 104.688 231.824 131.344 22.48-3.344 37.664-3.84 56.48-3.84 7.936 0 16.496 0.096 26.528 0.096 282.752 0 512 171.904 512 384 0 212.064-229.248 384-512 383.999z" />
<glyph unicode="&#xe951;" glyph-name="bubbles" d="M424.816 280.656c230.944 0 409.902 131.903 407.15 327.631 0 173.184-183.216 311.632-414.16 311.632-230.976 0-418.159-138.448-418.159-311.632 0-107.872 52.912-222.88 163.408-279.376 0-0.656-0.192-1.152-0.192-1.872 0-46.88-39.025-111.152-54.4-137.664h0.064c-1.216-2.88-1.952-6-1.952-9.344 0-13.12 10.576-23.664 23.696-23.664 1.935 0 5.088 0.4 6.223 0.4 0.32 0 0.433 0 0.4-0.095 81.665 13.344 202.257 105.248 220.129 127.024 18.336-2.72 30.72-3.152 46.080-3.152 6.528 0.016 13.473 0.112 21.713 0.112zM330.687 349.535l-40.977-34.032c-9.504-10.976-50.8-45.44-86.351-67.808 21.648 61.68 20.704 81.216 20.704 81.216l3.008 39.152-34.88 17.808c-88.672 45.344-128.528 139.744-128.528 222.4 0 137.664 158.864 247.632 354.16 247.632 195.28 0 350.16-109.968 350.16-247.632-0.609-152.608-145.872-264.624-341.152-264.624 0 0-29.808-1.152-60.4 3.376zM1024.33 349.807c0 86.736-33.887 152.881-118.446 202.513-2.064-23.072-8.64-47.824-15.793-69.568 54.656-37.777 70.256-76.56 70.256-132.944 0-69.025-32.16-119.090-106.912-157.345l-31.84-15.808s3.312-82 8.224-102.752c-62.448 45.776-83.905 84-83.905 84l-33.664-5.184c-13.311-1.935-49.311-1.967-49.311-1.967-86.944 0-151.376 20.72-206.336 63.744 14.928 0.912-89.185 0.88-91.505-1.153 63.568-77.631 167.473-126.592 297.84-126.592 7.089 0 13.089-0.064 18.72-0.064 13.28 0 24 0.368 39.84 2.688 15.489-18.784 102.225-101.504 172.816-113.008-0.032 0.065 0.064 0.065 0.368 0.065 0.944 0 3.68-0.336 5.344-0.336 11.344 0 20.496 9.12 20.496 20.464 0 2.88-0.656 5.6-1.68 8.063h0.064c-13.28 22.88-34.128 89.744-34.128 130.256 0 0.624-0.192 1.056-0.192 1.632 95.504 48.832 139.744 120.080 139.744 213.296z" />
<glyph unicode="&#xe952;" glyph-name="envelope" d="M1023.46 728c0.26 1.523 0.408 3.277 0.408 5.066 0 4.789-1.065 9.33-2.97 13.399l0.082-0.194c-8.063 35.441-33.68 53.729-76.975 53.729h-832c-38.080 0-79.105-14-99.28-41.472-1.745-1.328-3.409-2.832-4.912-4.576-6.449-7.44-8.705-17.009-7.264-26.033-0.288-2.592-0.544-5.2-0.544-7.92v-512c0-53.024 58.992-112 112-112h832c53.024 0 80 58.976 80 112v512c0 2.832-0.368 5.313-0.544 8.001zM112.001 736l832.433 0.001-432.432-344.656-430.688 343.248c9.792 1.808 21.84 1.407 30.686 1.407zM944.002 160.001h-831.999c-17.648 0-48 30.336-48 48v458.448l427.040-341.648c6.016-5.2 13.487-7.792 20.959-7.792 0.009 0 0.020 0 0.031 0 8.026 0 15.363 2.95 20.985 7.826l-0.040-0.034 427.024 341.632v-458.432c0-17.664 1.664-48-16-48z" />
<glyph unicode="&#xe953;" glyph-name="envelope-open" d="M1023.31 486.704c-1.36 11.312-5.614 21.713-12.095 30.465h0.16l-0.88 0.88c-3.28 4.32-7.12 8.128-11.408 11.504l-417.28 403.407c-36.223 36.223-99.504 36.288-135.776 0l-417.216-400.255c-9.024-8.4-28.88-31.090-28.88-53.345v-479.52c0-35.184 28.816-64 64-64h896c35.183 0 64 28.816 64 64v478.256c0.223 2.88-0.065 5.76-0.625 8.607zM269.794 233.665l-205.856-189.567v371.184zM335.569 207.281c2.288 1.52 4.465 3.248 6.37 5.408 0.367 0.416 0.623 0.912 0.96 1.344l141.167 130c7.248 5.84 15.84 8.912 24.88 8.912 9.184 0 18.367-3.216 24.527-8l383.6-345.104h-806.736zM757.458 229.442l202.48 179.696v-361.84zM103.778 517.171l387.501 370.544c6.064 6.032 14.097 9.376 22.625 9.376 8.56 0 16.592-3.344 22.656-9.376l361.376-344.352h-0.975l54.896-55.792-242.304-215.040-135.248 121.664c-37.68 29.536-91.775 30.816-131.68-1.376l-125.504-115.584-241.791 213.344 26.992 26.592h1.456z" />
</font>
</defs>
</svg>
